999
DXF file: C:\Users\豆田浩志\Documents\elmocast_appearance-drawing.dxf
999
Pro/ENGINEER 2015290 by Parametric Technology Corporation
  0
SECTION
  2
HEADER
  9
$ACADVER
  1
AC1014
  9
$DWGCODEPAGE
  3
ANSI_932
  9
$EXTMAX
 10
297.0
 20
210.0
 30
0.0
  9
$EXTMIN
 10
0.0
 20
0.0
 30
0.0
  9
$LIMMIN
 10
0.0
 20
0.0
  9
$LIMMAX
 10
297.0
 20
210.0
  9
$VIEWCTR
 10
148.5
 20
105.0
  9
$VIEWSIZE
 40
210.0
  9
$CLAYER
  8
0
  9
$LTSCALE
 40
16.335
  9
$CELTYPE
  6
BYLAYER
  9
$DIMSCALE
 40
1.0
  9
$DIMASZ
 40
2.5
  9
$DIMEXO
 40
0.0
  9
$DIMDLI
 40
11.286
  9
$DIMEXE
 40
1.0
  9
$DIMCEN
 40
2.673
  9
$DIMLFAC
 40
1.0
  9
$DIMBLK
  1
_ARROW_FILLED
  9
$DIMALT
 70
0
  9
$DIMALTF
 40
0.0393700787
  9
$DIMTXT
 40
3.0
  9
$DIMTOL
 70
1
  9
$DIMLIM
 70
0
  9
$DIMTFAC
 40
1.0
  9
$DIMTP
 40
0.0001
  9
$DIMTM
 40
0.0001
  9
$DIMGAP
 40
0.625
  9
$AUNITS
 70
0
  9
$PDMODE
 70
3
  9
$PDSIZE
 40
0.3125
  9
$HANDSEED
  5
7E1
  9
$TILEMODE
 70
1
  9
$MEASUREMENT
 70
1
  0
ENDSEC
  0
SECTION
  2
CLASSES
  0
ENDSEC
  0
SECTION
  2
TABLES
  0
TABLE
  2
VPORT
  5
8
100
AcDbSymbolTable
 70
2
  0
VPORT
  5
1F4
100
AcDbSymbolTableRecord
100
AcDbViewportTableRecord
  2
*ACTIVE
 70
0
 10
0.0
 20
0.0
 11
1.0
 21
1.0
 12
148.5
 22
105.0
 13
0.0
 23
0.0
 14
1.0
 24
1.0
 15
0.0
 25
0.0
 16
0.0
 26
0.0
 36
1.0
 17
0.0
 27
0.0
 37
0.0
 40
210.0
 41
1.4142857143
 42
50.0
 43
0.0
 44
0.0
 50
0.0
 51
0.0
 71
0
 72
100
 73
1
 74
1
 75
0
 76
0
 77
0
 78
0
  0
ENDTAB
  0
TABLE
  2
LTYPE
  5
5
100
AcDbSymbolTable
 70
6
  0
LTYPE
  5
14
100
AcDbSymbolTableRecord
100
AcDbLinetypeTableRecord
  2
BYBLOCK
 70
0
  3

 72
65
 73
0
 40
0.0
  0
LTYPE
  5
15
100
AcDbSymbolTableRecord
100
AcDbLinetypeTableRecord
  2
BYLAYER
 70
0
  3

 72
65
 73
0
 40
0.0
  0
LTYPE
  5
16
100
AcDbSymbolTableRecord
100
AcDbLinetypeTableRecord
  2
CONTINUOUS
 70
64
  3
Solid line
 72
65
 73
0
 40
0.0
  0
LTYPE
  5
1F5
100
AcDbSymbolTableRecord
100
AcDbLinetypeTableRecord
  2
CENTER
 70
64
  3
____ _ ____ _ ____ _ ____ _ ____ _ ____ _ ____
 72
65
 73
4
 40
0.6
 49
0.375
 74
0
 49
-0.075
 74
0
 49
0.075
 74
0
 49
-0.075
 74
0
  0
LTYPE
  5
1F6
100
AcDbSymbolTableRecord
100
AcDbLinetypeTableRecord
  2
HIDDEN
 70
64
  3
- - - - - - - - - - - - - - - - - - - -
 72
65
 73
2
 40
0.2
 49
0.1
 74
0
 49
-0.1
 74
0
  0
LTYPE
  5
1F7
100
AcDbSymbolTableRecord
100
AcDbLinetypeTableRecord
  2
PHANTOM
 70
64
  3
_____ _ _ _____ _ _ _____ _ _ _____
 72
65
 73
6
 40
0.8
 49
0.45
 74
0
 49
-0.05
 74
0
 49
0.1
 74
0
 49
-0.05
 74
0
 49
0.1
 74
0
 49
-0.05
 74
0
  0
LTYPE
  5
1F8
100
AcDbSymbolTableRecord
100
AcDbLinetypeTableRecord
  2
DOT
 70
64
  3
. . . . . . . . . . . . . . . . . . . .
 72
65
 73
2
 40
0.2
 49
0.1
 74
0
 49
-0.1
 74
0
  0
LTYPE
  5
1F9
100
AcDbSymbolTableRecord
100
AcDbLinetypeTableRecord
  2
DASHED
 70
64
  3
- - - - - - - - - - - - - - - - - - - -
 72
65
 73
2
 40
0.2
 49
0.1
 74
0
 49
-0.1
 74
0
  0
ENDTAB
  0
TABLE
  2
LAYER
  5
2
100
AcDbSymbolTable
 70
36
  0
LAYER
  5
10
100
AcDbSymbolTableRecord
100
AcDbLayerTableRecord
  2
0
 70
0
 62
7
  6
CONTINUOUS
  0
LAYER
  5
1FA
100
AcDbSymbolTableRecord
100
AcDbLayerTableRecord
  2
DEFAULT_1
 70
0
 62
7
  6
CENTER
  0
LAYER
  5
1FB
100
AcDbSymbolTableRecord
100
AcDbLayerTableRecord
  2
DEFAULT_2
 70
0
 62
8
  6
HIDDEN
  0
LAYER
  5
1FC
100
AcDbSymbolTableRecord
100
AcDbLayerTableRecord
  2
DEFAULT_3
 70
0
 62
7
  6
PHANTOM
  0
LAYER
  5
1FD
100
AcDbSymbolTableRecord
100
AcDbLayerTableRecord
  2
00_ALL_DIMENSION
 70
0
 62
7
  6
CONTINUOUS
  0
LAYER
  5
1FE
100
AcDbSymbolTableRecord
100
AcDbLayerTableRecord
  2
00_ALL_FEATURE
 70
0
 62
7
  6
CONTINUOUS
  0
LAYER
  5
1FF
100
AcDbSymbolTableRecord
100
AcDbLayerTableRecord
  2
01_ALL_PLANES
 70
0
 62
7
  6
CONTINUOUS
  0
LAYER
  5
200
100
AcDbSymbolTableRecord
100
AcDbLayerTableRecord
  2
01__DEF_ASM_PLN
 70
0
 62
7
  6
CONTINUOUS
  0
LAYER
  5
201
100
AcDbSymbolTableRecord
100
AcDbLayerTableRecord
  2
01__DEF_PLANES
 70
0
 62
7
  6
CONTINUOUS
  0
LAYER
  5
202
100
AcDbSymbolTableRecord
100
AcDbLayerTableRecord
  2
02_ALL_CSYS
 70
0
 62
7
  6
CONTINUOUS
  0
LAYER
  5
203
100
AcDbSymbolTableRecord
100
AcDbLayerTableRecord
  2
02__DEF_ASM_CSYS
 70
0
 62
7
  6
CONTINUOUS
  0
LAYER
  5
204
100
AcDbSymbolTableRecord
100
AcDbLayerTableRecord
  2
02__DEF_CSYS
 70
0
 62
7
  6
CONTINUOUS
  0
LAYER
  5
205
100
AcDbSymbolTableRecord
100
AcDbLayerTableRecord
  2
03_ALL_AXES
 70
0
 62
7
  6
CONTINUOUS
  0
LAYER
  5
206
100
AcDbSymbolTableRecord
100
AcDbLayerTableRecord
  2
04_ALL_DATUM
 70
0
 62
7
  6
CONTINUOUS
  0
LAYER
  5
207
100
AcDbSymbolTableRecord
100
AcDbLayerTableRecord
  2
04_ALL_POINTS
 70
0
 62
7
  6
CONTINUOUS
  0
LAYER
  5
208
100
AcDbSymbolTableRecord
100
AcDbLayerTableRecord
  2
04_USER_DATUM
 70
0
 62
7
  6
CONTINUOUS
  0
LAYER
  5
209
100
AcDbSymbolTableRecord
100
AcDbLayerTableRecord
  2
05_ALL_CSYS
 70
0
 62
7
  6
CONTINUOUS
  0
LAYER
  5
20A
100
AcDbSymbolTableRecord
100
AcDbLayerTableRecord
  2
05_ALL_CURVES
 70
0
 62
7
  6
CONTINUOUS
  0
LAYER
  5
20B
100
AcDbSymbolTableRecord
100
AcDbLayerTableRecord
  2
06_ALL_SURFS
 70
0
 62
7
  6
CONTINUOUS
  0
LAYER
  5
20C
100
AcDbSymbolTableRecord
100
AcDbLayerTableRecord
  2
AXIS
 70
0
 62
7
  6
CONTINUOUS
  0
LAYER
  5
20D
100
AcDbSymbolTableRecord
100
AcDbLayerTableRecord
  2
CSYS
 70
0
 62
7
  6
CONTINUOUS
  0
LAYER
  5
20E
100
AcDbSymbolTableRecord
100
AcDbLayerTableRecord
  2
QUILT
 70
0
 62
7
  6
CONTINUOUS
  0
LAYER
  5
20F
100
AcDbSymbolTableRecord
100
AcDbLayerTableRecord
  2
SURFACE
 70
0
 62
7
  6
CONTINUOUS
  0
ENDTAB
  0
TABLE
  2
STYLE
  5
3
100
AcDbSymbolTable
 70
1
  0
STYLE
  5
11
100
AcDbSymbolTableRecord
100
AcDbTextStyleTableRecord
  2
STANDARD
 70
0
 40
0.0
 41
0.8
 50
0.0
 71
0
 42
0.2
  3
txt
  4

  0
STYLE
  5
210
100
AcDbSymbolTableRecord
100
AcDbTextStyleTableRecord
  2
TEXTSTYLE_1
 70
0
 40
0.0
 41
0.8
 50
0.0
 71
0
 42
0.2
  3
gdt
  4

  0
ENDTAB
  0
TABLE
  2
VIEW
  5
6
100
AcDbSymbolTable
 70
0
  0
ENDTAB
  0
TABLE
  2
UCS
  5
7
100
AcDbSymbolTable
 70
0
  0
ENDTAB
  0
TABLE
  2
APPID
  5
9
100
AcDbSymbolTable
 70
1
  0
APPID
  5
211
100
AcDbSymbolTableRecord
100
AcDbRegAppTableRecord
  2
ACAD
 70
0
  0
ENDTAB
  0
TABLE
  2
BLOCK_RECORD
  5
1
100
AcDbSymbolTable
 70
0
  0
BLOCK_RECORD
  5
1F
100
AcDbSymbolTableRecord
100
AcDbBlockTableRecord
  2
*MODEL_SPACE
  0
BLOCK_RECORD
  5
1B
100
AcDbSymbolTableRecord
100
AcDbBlockTableRecord
  2
*PAPER_SPACE
  0
BLOCK_RECORD
  5
212
100
AcDbSymbolTableRecord
100
AcDbBlockTableRecord
  2
_ARROW_FILLED
  0
BLOCK_RECORD
  5
213
100
AcDbSymbolTableRecord
100
AcDbBlockTableRecord
  2
*D0
  0
BLOCK_RECORD
  5
214
100
AcDbSymbolTableRecord
100
AcDbBlockTableRecord
  2
*D1
  0
BLOCK_RECORD
  5
215
100
AcDbSymbolTableRecord
100
AcDbBlockTableRecord
  2
*D2
  0
BLOCK_RECORD
  5
216
100
AcDbSymbolTableRecord
100
AcDbBlockTableRecord
  2
*D3
  0
ENDTAB
  0
TABLE
  2
DIMSTYLE
  5
A
100
AcDbSymbolTable
 70
1
  0
DIMSTYLE
105
217
100
AcDbSymbolTableRecord
100
AcDbDimStyleTableRecord
  2
STANDARD
 70
0
  3

  4

  5
_ARROW_FILLED
  6
_ARROW_FILLED
  7
_ARROW_FILLED
 40
1.0
 41
2.5
 42
0.0
 43
0.38
 44
1.0
 45
0.0
 46
0.0
 47
0.0001
 48
0.0001
140
3.0
141
0.09
142
0.0
143
25.4
144
1.0
145
0.0
146
1.0
147
0.625
 71
1.0
 72
0.0
 73
0
 74
0
 75
0
 76
0
 77
1
 78
8
170
0
171
2
172
0
173
0
174
0
175
0
176
0
177
0
178
0
270
2
271
4
272
4
273
2
274
2
275
0
280
0
281
0
282
0
283
1
284
8
285
0
286
0
287
3
288
0
340
11
  0
DIMSTYLE
105
218
100
AcDbSymbolTableRecord
100
AcDbDimStyleTableRecord
  2
DIMSTYLE_1
 70
0
  3

  4

  5
_ARROW_FILLED
  6
_ARROW_FILLED
  7
_ARROW_FILLED
 40
1.0
 41
2.5
 42
0.0
 43
0.38
 44
1.0
 45
0.0
 46
0.0
 47
0.3
 48
0.3
140
3.0
141
0.09
142
0.0
143
25.4
144
1.0
145
0.0
146
1.0
147
0.75
 71
0.0
 72
0.0
 73
0
 74
0
 75
0
 76
0
 77
1
 78
8
170
0
171
2
172
0
173
0
174
0
175
0
176
0
177
0
178
0
270
2
271
4
272
4
273
2
274
2
275
0
280
0
281
0
282
0
283
1
284
8
285
0
286
0
287
3
288
0
340
11
  0
DIMSTYLE
105
219
100
AcDbSymbolTableRecord
100
AcDbDimStyleTableRecord
  2
DIMSTYLE_2
 70
0
  3

  4

  5
_ARROW_FILLED
  6
_ARROW_FILLED
  7
_ARROW_FILLED
 40
1.0
 41
2.5
 42
0.0
 43
0.38
 44
1.0
 45
0.0
 46
0.0
 47
0.2
 48
0.2
140
3.0
141
0.09
142
0.0
143
25.4
144
1.0
145
0.0
146
1.0
147
0.75
 71
0.0
 72
0.0
 73
0
 74
0
 75
0
 76
0
 77
1
 78
8
170
0
171
2
172
0
173
0
174
0
175
0
176
0
177
0
178
0
270
2
271
4
272
4
273
2
274
2
275
0
280
0
281
0
282
0
283
1
284
8
285
0
286
0
287
3
288
0
340
11
  0
ENDTAB
  0
ENDSEC
  0
SECTION
  2
BLOCKS
  0
BLOCK
  5
20
100
AcDbEntity
  8
0
100
AcDbBlockBegin
  2
*MODEL_SPACE
 70
0
 10
0.0
 20
0.0
 30
0.0
  3
*MODEL_SPACE
  1

  0
ENDBLK
  5
21
100
AcDbEntity
  8
0
100
AcDbBlockEnd
  0
BLOCK
  5
1C
100
AcDbEntity
  8
0
100
AcDbBlockBegin
  2
*PAPER_SPACE
 70
0
 10
0.0
 20
0.0
 30
0.0
  3
*PAPER_SPACE
  1

  0
ENDBLK
  5
1D
100
AcDbEntity
  8
0
100
AcDbBlockEnd
  0
BLOCK
  5
21A
100
AcDbEntity
  8
0
100
AcDbBlockBegin
  2
_ARROW_FILLED
 70
64
 10
0.0
 20
0.0
  3
_ARROW_FILLED
  1

  0
SOLID
  5
21B
100
AcDbEntity
  8
0
  6
BYBLOCK
 62
0
100
AcDbTrace
 10
0.0
 20
0.0
 11
-1.0
 21
0.16
 12
-1.0
 22
-0.16
 13
-1.0
 23
-0.16
  0
ENDBLK
  5
21C
100
AcDbEntity
  8
0
  6
BYBLOCK
 62
0
100
AcDbBlockEnd
  0
BLOCK
  5
21D
100
AcDbEntity
  8
00_ALL_DIMENSION
100
AcDbBlockBegin
 62
2
  6
CONTINUOUS
  2
*D0
 70
65
 10
0.0
 20
0.0
  3
*D0
  1

  0
MTEXT
  5
21E
100
AcDbEntity
  8
00_ALL_DIMENSION
100
AcDbMText
 62
2
  6
CONTINUOUS
  7
STANDARD
 71
2
 72
1
 10
134.6005050066
 20
153.0287340686
 30
0.0
 11
1.0
 21
0.0
 31
0.0
  1
99
 40
3.0
 41
4.8
  0
LINE
  5
21F
100
AcDbEntity
  8
00_ALL_DIMENSION
100
AcDbLine
 62
2
  6
CONTINUOUS
 10
183.2005050066
 20
140.3873872796
 11
183.2005050066
 21
150.2787340686
  0
LINE
  5
220
100
AcDbEntity
  8
00_ALL_DIMENSION
100
AcDbLine
 62
2
  6
CONTINUOUS
 10
86.0005050066
 20
131.637387286
 11
86.0005050066
 21
150.2787340686
  0
LINE
  5
221
100
AcDbEntity
  8
00_ALL_DIMENSION
100
AcDbLine
 62
2
  6
CONTINUOUS
 10
183.2005050066
 20
149.2787340686
 11
134.6005050066
 21
149.2787340686
  0
LINE
  5
222
100
AcDbEntity
  8
00_ALL_DIMENSION
100
AcDbLine
 62
2
  6
CONTINUOUS
 10
86.0005050066
 20
149.2787340686
 11
134.6005050066
 21
149.2787340686
  0
INSERT
  5
223
100
AcDbEntity
  8
00_ALL_DIMENSION
100
AcDbBlockReference
 62
2
  6
CONTINUOUS
  2
_ARROW_FILLED
 10
183.2005050066
 20
149.2787340686
 41
2.5
 42
2.5
 43
2.5
  0
INSERT
  5
224
100
AcDbEntity
  8
00_ALL_DIMENSION
100
AcDbBlockReference
 62
2
  6
CONTINUOUS
  2
_ARROW_FILLED
 10
86.0005050066
 20
149.2787340686
 41
2.5
 42
2.5
 43
2.5
 50
180.0
  0
ENDBLK
  5
225
100
AcDbEntity
  8
0
  6
BYBLOCK
 62
0
100
AcDbBlockEnd
  0
BLOCK
  5
226
100
AcDbEntity
  8
00_ALL_DIMENSION
100
AcDbBlockBegin
 62
2
  6
CONTINUOUS
  2
*D1
 70
65
 10
0.0
 20
0.0
  3
*D1
  1

  0
MTEXT
  5
227
100
AcDbEntity
  8
00_ALL_DIMENSION
100
AcDbMText
 62
2
  6
CONTINUOUS
  7
STANDARD
 71
2
 72
1
 10
187.6839411665
 20
127.887387286
 30
0.0
 11
0.0
 21
1.0
 31
0.0
  1
32
 40
3.0
 41
4.8
  0
LINE
  5
228
100
AcDbEntity
  8
00_ALL_DIMENSION
100
AcDbLine
 62
2
  6
CONTINUOUS
 10
179.7005050035
 20
143.887387286
 11
192.4339411665
 21
143.887387286
  0
LINE
  5
229
100
AcDbEntity
  8
00_ALL_DIMENSION
100
AcDbLine
 62
2
  6
CONTINUOUS
 10
179.7005050024
 20
111.887387286
 11
192.4339411665
 21
111.887387286
  0
LINE
  5
22A
100
AcDbEntity
  8
00_ALL_DIMENSION
100
AcDbLine
 62
2
  6
CONTINUOUS
 10
191.4339411665
 20
143.887387286
 11
191.4339411665
 21
127.887387286
  0
LINE
  5
22B
100
AcDbEntity
  8
00_ALL_DIMENSION
100
AcDbLine
 62
2
  6
CONTINUOUS
 10
191.4339411665
 20
111.887387286
 11
191.4339411665
 21
127.887387286
  0
INSERT
  5
22C
100
AcDbEntity
  8
00_ALL_DIMENSION
100
AcDbBlockReference
 62
2
  6
CONTINUOUS
  2
_ARROW_FILLED
 10
191.4339411665
 20
143.887387286
 41
2.5
 42
2.5
 43
2.5
 50
90.0
  0
INSERT
  5
22D
100
AcDbEntity
  8
00_ALL_DIMENSION
100
AcDbBlockReference
 62
2
  6
CONTINUOUS
  2
_ARROW_FILLED
 10
191.4339411665
 20
111.887387286
 41
2.5
 42
2.5
 43
2.5
 50
270.0
  0
ENDBLK
  5
22E
100
AcDbEntity
  8
0
  6
BYBLOCK
 62
0
100
AcDbBlockEnd
  0
BLOCK
  5
22F
100
AcDbEntity
  8
00_ALL_DIMENSION
100
AcDbBlockBegin
 62
2
  6
CONTINUOUS
  2
*D2
 70
65
 10
0.0
 20
0.0
  3
*D2
  1

  0
MTEXT
  5
230
100
AcDbEntity
  8
00_ALL_DIMENSION
100
AcDbMText
 62
2
  6
CONTINUOUS
  7
STANDARD
 71
2
 72
1
 10
139.4005050066
 20
109.2482392193
 30
0.0
 11
1.0
 21
0.0
 31
0.0
  1
87.5
 40
3.0
 41
9.6
  0
LINE
  5
231
100
AcDbEntity
  8
00_ALL_DIMENSION
100
AcDbLine
 62
2
  6
CONTINUOUS
 10
95.6005050066
 20
115.3873872924
 11
95.6005050066
 21
104.4982392193
  0
LINE
  5
232
100
AcDbEntity
  8
00_ALL_DIMENSION
100
AcDbLine
 62
2
  6
CONTINUOUS
 10
183.2005050066
 20
115.387387289
 11
183.2005050066
 21
104.4982392193
  0
LINE
  5
233
100
AcDbEntity
  8
00_ALL_DIMENSION
100
AcDbLine
 62
2
  6
CONTINUOUS
 10
95.6005050066
 20
105.4982392193
 11
139.4005050066
 21
105.4982392193
  0
LINE
  5
234
100
AcDbEntity
  8
00_ALL_DIMENSION
100
AcDbLine
 62
2
  6
CONTINUOUS
 10
183.2005050066
 20
105.4982392193
 11
139.4005050066
 21
105.4982392193
  0
INSERT
  5
235
100
AcDbEntity
  8
00_ALL_DIMENSION
100
AcDbBlockReference
 62
2
  6
CONTINUOUS
  2
_ARROW_FILLED
 10
95.6005050066
 20
105.4982392193
 41
2.5
 42
2.5
 43
2.5
 50
180.0
  0
INSERT
  5
236
100
AcDbEntity
  8
00_ALL_DIMENSION
100
AcDbBlockReference
 62
2
  6
CONTINUOUS
  2
_ARROW_FILLED
 10
183.2005050066
 20
105.4982392193
 41
2.5
 42
2.5
 43
2.5
  0
ENDBLK
  5
237
100
AcDbEntity
  8
0
  6
BYBLOCK
 62
0
100
AcDbBlockEnd
  0
BLOCK
  5
238
100
AcDbEntity
  8
00_ALL_DIMENSION
100
AcDbBlockBegin
 62
2
  6
CONTINUOUS
  2
*D3
 70
65
 10
0.0
 20
0.0
  3
*D3
  1

  0
MTEXT
  5
239
100
AcDbEntity
  8
00_ALL_DIMENSION
100
AcDbMText
 62
2
  6
CONTINUOUS
  7
STANDARD
 71
2
 72
1
 10
188.2185027485
 20
89.8370540725
 30
0.0
 11
0.0
 21
1.0
 31
0.0
  1
12
 40
3.0
 41
4.8
  0
LINE
  5
23A
100
AcDbEntity
  8
00_ALL_DIMENSION
100
AcDbLine
 62
2
  6
CONTINUOUS
 10
182.6005050066
 20
95.8370540725
 11
192.9685027485
 21
95.8370540725
  0
LINE
  5
23B
100
AcDbEntity
  8
00_ALL_DIMENSION
100
AcDbLine
 62
2
  6
CONTINUOUS
 10
182.6005050066
 20
83.8370540725
 11
192.9685027485
 21
83.8370540725
  0
LINE
  5
23C
100
AcDbEntity
  8
00_ALL_DIMENSION
100
AcDbLine
 62
2
  6
CONTINUOUS
 10
191.9685027485
 20
95.8370540725
 11
191.9685027485
 21
89.8370540725
  0
LINE
  5
23D
100
AcDbEntity
  8
00_ALL_DIMENSION
100
AcDbLine
 62
2
  6
CONTINUOUS
 10
191.9685027485
 20
83.8370540725
 11
191.9685027485
 21
89.8370540725
  0
INSERT
  5
23E
100
AcDbEntity
  8
00_ALL_DIMENSION
100
AcDbBlockReference
 62
2
  6
CONTINUOUS
  2
_ARROW_FILLED
 10
191.9685027485
 20
95.8370540725
 41
2.5
 42
2.5
 43
2.5
 50
90.0
  0
INSERT
  5
23F
100
AcDbEntity
  8
00_ALL_DIMENSION
100
AcDbBlockReference
 62
2
  6
CONTINUOUS
  2
_ARROW_FILLED
 10
191.9685027485
 20
83.8370540725
 41
2.5
 42
2.5
 43
2.5
 50
270.0
  0
ENDBLK
  5
240
100
AcDbEntity
  8
0
  6
BYBLOCK
 62
0
100
AcDbBlockEnd
  0
ENDSEC
  0
SECTION
  2
ENTITIES
  0
DIMENSION
  5
241
100
AcDbEntity
  8
00_ALL_DIMENSION
100
AcDbDimension
 62
2
  6
CONTINUOUS
  2
*D0
 10
86.0005050066
 20
149.2787340686
 11
134.6005033264
 21
149.2787340686
 70
160
  3
DIMSTYLE_1
100
AcDbAlignedDimension
 13
183.2005050066
 23
140.3873872796
 14
86.0005050066
 24
131.637387286
 50
180.0
100
AcDbRotatedDimension
  0
DIMENSION
  5
242
100
AcDbEntity
  8
00_ALL_DIMENSION
100
AcDbDimension
 62
2
  6
CONTINUOUS
  2
*D1
 10
191.4339411665
 20
111.887387286
 11
191.4339411665
 21
127.8873806898
 70
160
  3
DIMSTYLE_1
100
AcDbAlignedDimension
 13
179.7005050035
 23
143.887387286
 14
179.7005050024
 24
111.887387286
 50
270.0
100
AcDbRotatedDimension
  0
DIMENSION
  5
243
100
AcDbEntity
  8
00_ALL_DIMENSION
100
AcDbDimension
 62
2
  6
CONTINUOUS
  2
*D2
 10
183.2005050066
 20
105.4982392193
 11
139.4005047913
 21
105.4982392193
 70
160
  3
DIMSTYLE_1
100
AcDbAlignedDimension
 13
95.6005050066
 23
115.3873872924
 14
183.2005050066
 24
115.387387289
100
AcDbRotatedDimension
  0
DIMENSION
  5
244
100
AcDbEntity
  8
00_ALL_DIMENSION
100
AcDbDimension
 62
2
  6
CONTINUOUS
  2
*D3
 10
191.9685027485
 20
83.8370540725
 11
191.9685027485
 21
90.1370461055
 70
160
  3
DIMSTYLE_2
100
AcDbAlignedDimension
 13
182.6005050066
 23
95.8370540725
 14
182.6005050066
 24
83.8370540725
 50
270.0
100
AcDbRotatedDimension
  0
MTEXT
  5
245
100
AcDbEntity
  8
0
100
AcDbMText
 62
2
  6
CONTINUOUS
  7
STANDARD
 71
1
 72
1
 10
230.9640941103
 20
24.8451934612
 30
0.0
 11
1.0
 21
0.0
 31
0.0
  1
ELMO Cast 外観図
 40
3.0
 41
31.2
  0
MTEXT
  5
246
100
AcDbEntity
  8
0
100
AcDbMText
 62
2
  6
CONTINUOUS
  7
STANDARD
 71
1
 72
1
 10
237.7543426888
 20
10.0355424127
 30
0.0
 11
1.0
 21
0.0
 31
0.0
  1
株式会社エルモ社　ELMO　CO.,LTD
 40
3.0
 41
50.4
  0
MTEXT
  5
247
100
AcDbEntity
  8
0
100
AcDbMText
 62
2
  6
CONTINUOUS
  7
STANDARD
 71
1
 72
1
 10
239.7497838186
 20
18.8692576201
 30
0.0
 11
1.0
 21
0.0
 31
0.0
  1
Scale 1/1
 40
3.0
 41
21.6
  0
LINE
  5
248
100
AcDbEntity
  8
0
100
AcDbLine
 62
7
  6
CONTINUOUS
 10
0.0
 20
0.0
 11
0.0
 21
210.0
  0
LINE
  5
249
100
AcDbEntity
  8
0
100
AcDbLine
 62
7
  6
CONTINUOUS
 10
0.0
 20
0.0
 11
297.0
 21
0.0
  0
LINE
  5
24A
100
AcDbEntity
  8
0
100
AcDbLine
 62
7
  6
CONTINUOUS
 10
56.4412041416
 20
112.4873872866
 11
56.4412041416
 21
143.2873872854
  0
LINE
  5
24B
100
AcDbEntity
  8
0
100
AcDbLine
 62
7
  6
CONTINUOUS
 10
60.2713841779
 20
133.7458553804
 11
60.5679308876
 21
134.5168768256
  0
LINE
  5
24C
100
AcDbEntity
  8
0
100
AcDbLine
 62
7
  6
CONTINUOUS
 10
60.7546000089
 20
134.4450810098
 11
60.4580532992
 21
133.6740595646
  0
LINE
  5
24D
100
AcDbEntity
  8
0
100
AcDbLine
 62
7
  6
CONTINUOUS
 10
60.5513878598
 20
133.6381616566
 11
60.8479345695
 21
134.4091831018
  0
LINE
  5
24E
100
AcDbEntity
  8
0
100
AcDbLine
 62
7
  6
CONTINUOUS
 10
56.4412041412
 20
143.2873872855
 11
57.0412041413
 21
143.8873872857
  0
LINE
  5
24F
100
AcDbEntity
  8
0
100
AcDbLine
 62
7
  6
CONTINUOUS
 10
57.0412041416
 20
111.887387286
 11
57.0412041416
 21
143.887387286
  0
LINE
  5
250
100
AcDbEntity
  8
0
100
AcDbLine
 62
7
  6
CONTINUOUS
 10
58.8912041416
 20
134.387387286
 11
58.8912041416
 21
121.387387286
  0
LINE
  5
251
100
AcDbEntity
  8
0
100
AcDbLine
 62
7
  6
CONTINUOUS
 10
58.9412041416
 20
121.1476147356
 11
58.9412041416
 21
133.587387286
  0
LINE
  5
252
100
AcDbEntity
  8
0
100
AcDbLine
 62
7
  6
CONTINUOUS
 10
58.9912041416
 20
121.437387286
 11
58.9912041416
 21
134.337387286
  0
LINE
  5
253
100
AcDbEntity
  8
0
100
AcDbLine
 62
7
  6
CONTINUOUS
 10
59.14525146
 20
134.337387286
 11
59.14525146
 21
132.5350159661
  0
LINE
  5
254
100
AcDbEntity
  8
0
100
AcDbLine
 62
7
  6
CONTINUOUS
 10
59.14525146
 20
121.437387286
 11
59.14525146
 21
123.2397586059
  0
LINE
  5
255
100
AcDbEntity
  8
0
100
AcDbLine
 62
7
  6
CONTINUOUS
 10
59.1912041416
 20
132.1740218635
 11
59.1912041416
 21
123.6007527084
  0
LINE
  5
256
100
AcDbEntity
  8
0
100
AcDbLine
 62
7
  6
CONTINUOUS
 10
59.24525146
 20
123.1439252725
 11
59.24525146
 21
121.437387286
  0
LINE
  5
257
100
AcDbEntity
  8
0
100
AcDbLine
 62
7
  6
CONTINUOUS
 10
59.24525146
 20
132.6308492994
 11
59.24525146
 21
134.337387286
  0
LINE
  5
258
100
AcDbEntity
  8
0
100
AcDbLine
 62
7
  6
CONTINUOUS
 10
59.2912041416
 20
132.1740218635
 11
59.2912041416
 21
123.6007527084
  0
LINE
  5
259
100
AcDbEntity
  8
0
100
AcDbLine
 62
7
  6
CONTINUOUS
 10
59.7912041416
 20
123.637387286
 11
59.7912041416
 21
124.137387286
  0
LINE
  5
25A
100
AcDbEntity
  8
0
100
AcDbLine
 62
7
  6
CONTINUOUS
 10
59.7912041416
 20
124.637387286
 11
59.7912041416
 21
125.137387286
  0
LINE
  5
25B
100
AcDbEntity
  8
0
100
AcDbLine
 62
7
  6
CONTINUOUS
 10
59.7912041416
 20
125.637387286
 11
59.7912041416
 21
126.137387286
  0
LINE
  5
25C
100
AcDbEntity
  8
0
100
AcDbLine
 62
7
  6
CONTINUOUS
 10
59.7912041416
 20
126.637387286
 11
59.7912041416
 21
127.137387286
  0
LINE
  5
25D
100
AcDbEntity
  8
0
100
AcDbLine
 62
7
  6
CONTINUOUS
 10
59.7912041416
 20
127.637387286
 11
59.7912041416
 21
128.137387286
  0
LINE
  5
25E
100
AcDbEntity
  8
0
100
AcDbLine
 62
7
  6
CONTINUOUS
 10
59.7912041416
 20
128.637387286
 11
59.7912041416
 21
129.137387286
  0
LINE
  5
25F
100
AcDbEntity
  8
0
100
AcDbLine
 62
7
  6
CONTINUOUS
 10
59.7912041416
 20
129.637387286
 11
59.7912041416
 21
130.137387286
  0
LINE
  5
260
100
AcDbEntity
  8
0
100
AcDbLine
 62
7
  6
CONTINUOUS
 10
59.7912041416
 20
130.637387286
 11
59.7912041416
 21
131.137387286
  0
LINE
  5
261
100
AcDbEntity
  8
0
100
AcDbLine
 62
7
  6
CONTINUOUS
 10
59.7912041416
 20
131.637387286
 11
59.7912041416
 21
132.137387286
  0
LINE
  5
262
100
AcDbEntity
  8
0
100
AcDbLine
 62
7
  6
CONTINUOUS
 10
59.9912041416
 20
127.812387286
 11
59.9912041416
 21
127.962387286
  0
LINE
  5
263
100
AcDbEntity
  8
0
100
AcDbLine
 62
7
  6
CONTINUOUS
 10
60.2912041416
 20
132.137387286
 11
60.2912041416
 21
131.637387286
  0
LINE
  5
264
100
AcDbEntity
  8
0
100
AcDbLine
 62
7
  6
CONTINUOUS
 10
60.2912041416
 20
131.137387286
 11
60.2912041416
 21
130.637387286
  0
LINE
  5
265
100
AcDbEntity
  8
0
100
AcDbLine
 62
7
  6
CONTINUOUS
 10
60.2912041416
 20
130.137387286
 11
60.2912041416
 21
129.637387286
  0
LINE
  5
266
100
AcDbEntity
  8
0
100
AcDbLine
 62
7
  6
CONTINUOUS
 10
60.2912041416
 20
129.137387286
 11
60.2912041416
 21
128.637387286
  0
LINE
  5
267
100
AcDbEntity
  8
0
100
AcDbLine
 62
7
  6
CONTINUOUS
 10
60.2912041416
 20
128.137387286
 11
60.2912041416
 21
127.637387286
  0
LINE
  5
268
100
AcDbEntity
  8
0
100
AcDbLine
 62
7
  6
CONTINUOUS
 10
60.2912041416
 20
127.137387286
 11
60.2912041416
 21
126.637387286
  0
LINE
  5
269
100
AcDbEntity
  8
0
100
AcDbLine
 62
7
  6
CONTINUOUS
 10
60.2912041416
 20
126.137387286
 11
60.2912041416
 21
125.637387286
  0
LINE
  5
26A
100
AcDbEntity
  8
0
100
AcDbLine
 62
7
  6
CONTINUOUS
 10
60.2912041416
 20
125.137387286
 11
60.2912041416
 21
124.637387286
  0
LINE
  5
26B
100
AcDbEntity
  8
0
100
AcDbLine
 62
7
  6
CONTINUOUS
 10
60.2912041416
 20
124.137387286
 11
60.2912041416
 21
123.637387286
  0
LINE
  5
26C
100
AcDbEntity
  8
0
100
AcDbLine
 62
7
  6
CONTINUOUS
 10
60.4412041416
 20
120.787387286
 11
60.4412041416
 21
120.937387286
  0
LINE
  5
26D
100
AcDbEntity
  8
0
100
AcDbLine
 62
7
  6
CONTINUOUS
 10
60.4412041416
 20
134.837387286
 11
60.4412041416
 21
134.987387286
  0
LINE
  5
26E
100
AcDbEntity
  8
0
100
AcDbLine
 62
7
  6
CONTINUOUS
 10
60.7912041416
 20
123.3841562469
 11
60.7912041416
 21
132.3906183251
  0
LINE
  5
26F
100
AcDbEntity
  8
0
100
AcDbLine
 62
7
  6
CONTINUOUS
 10
61.8912041416
 20
111.887387286
 11
61.8912041416
 21
120.787387286
  0
LINE
  5
270
100
AcDbEntity
  8
0
100
AcDbLine
 62
7
  6
CONTINUOUS
 10
61.8912041416
 20
134.987387286
 11
61.8912041416
 21
143.887387286
  0
LINE
  5
271
100
AcDbEntity
  8
0
100
AcDbLine
 62
7
  6
CONTINUOUS
 10
61.9912041416
 20
134.137387286
 11
61.9912041416
 21
121.637387286
  0
LINE
  5
272
100
AcDbEntity
  8
0
100
AcDbLine
 62
7
  6
CONTINUOUS
 10
61.9912041416
 20
111.887387286
 11
61.9912041416
 21
120.787387286
  0
LINE
  5
273
100
AcDbEntity
  8
0
100
AcDbLine
 62
7
  6
CONTINUOUS
 10
61.9912041416
 20
134.987387286
 11
61.9912041416
 21
143.887387286
  0
LINE
  5
274
100
AcDbEntity
  8
0
100
AcDbLine
 62
7
  6
CONTINUOUS
 10
62.0412041416
 20
134.987387286
 11
62.0412041416
 21
134.837387286
  0
LINE
  5
275
100
AcDbEntity
  8
0
100
AcDbLine
 62
7
  6
CONTINUOUS
 10
62.0412041416
 20
120.937387286
 11
62.0412041416
 21
120.787387286
  0
LINE
  5
276
100
AcDbEntity
  8
0
100
AcDbLine
 62
7
  6
CONTINUOUS
 10
62.3412041416
 20
123.137387286
 11
62.3412041416
 21
123.637387286
  0
LINE
  5
277
100
AcDbEntity
  8
0
100
AcDbLine
 62
7
  6
CONTINUOUS
 10
62.3412041416
 20
124.137387286
 11
62.3412041416
 21
124.637387286
  0
LINE
  5
278
100
AcDbEntity
  8
0
100
AcDbLine
 62
7
  6
CONTINUOUS
 10
62.3412041416
 20
125.137387286
 11
62.3412041416
 21
125.637387286
  0
LINE
  5
279
100
AcDbEntity
  8
0
100
AcDbLine
 62
7
  6
CONTINUOUS
 10
62.3412041416
 20
126.137387286
 11
62.3412041416
 21
126.637387286
  0
LINE
  5
27A
100
AcDbEntity
  8
0
100
AcDbLine
 62
7
  6
CONTINUOUS
 10
62.3412041416
 20
127.137387286
 11
62.3412041416
 21
127.637387286
  0
LINE
  5
27B
100
AcDbEntity
  8
0
100
AcDbLine
 62
7
  6
CONTINUOUS
 10
62.3412041416
 20
128.137387286
 11
62.3412041416
 21
128.637387286
  0
LINE
  5
27C
100
AcDbEntity
  8
0
100
AcDbLine
 62
7
  6
CONTINUOUS
 10
62.3412041416
 20
129.137387286
 11
62.3412041416
 21
129.637387286
  0
LINE
  5
27D
100
AcDbEntity
  8
0
100
AcDbLine
 62
7
  6
CONTINUOUS
 10
62.3412041416
 20
130.137387286
 11
62.3412041416
 21
130.637387286
  0
LINE
  5
27E
100
AcDbEntity
  8
0
100
AcDbLine
 62
7
  6
CONTINUOUS
 10
62.3412041416
 20
131.137387286
 11
62.3412041416
 21
131.637387286
  0
LINE
  5
27F
100
AcDbEntity
  8
0
100
AcDbLine
 62
7
  6
CONTINUOUS
 10
62.3412041416
 20
132.137387286
 11
62.3412041416
 21
132.637387286
  0
LINE
  5
280
100
AcDbEntity
  8
0
100
AcDbLine
 62
7
  6
CONTINUOUS
 10
62.8412041416
 20
132.637387286
 11
62.8412041416
 21
132.137387286
  0
LINE
  5
281
100
AcDbEntity
  8
0
100
AcDbLine
 62
7
  6
CONTINUOUS
 10
62.8412041416
 20
131.637387286
 11
62.8412041416
 21
131.137387286
  0
LINE
  5
282
100
AcDbEntity
  8
0
100
AcDbLine
 62
7
  6
CONTINUOUS
 10
62.8412041416
 20
130.637387286
 11
62.8412041416
 21
130.137387286
  0
LINE
  5
283
100
AcDbEntity
  8
0
100
AcDbLine
 62
7
  6
CONTINUOUS
 10
62.8412041416
 20
129.637387286
 11
62.8412041416
 21
129.137387286
  0
LINE
  5
284
100
AcDbEntity
  8
0
100
AcDbLine
 62
7
  6
CONTINUOUS
 10
62.8412041416
 20
128.637387286
 11
62.8412041416
 21
128.137387286
  0
LINE
  5
285
100
AcDbEntity
  8
0
100
AcDbLine
 62
7
  6
CONTINUOUS
 10
62.8412041416
 20
127.637387286
 11
62.8412041416
 21
127.137387286
  0
LINE
  5
286
100
AcDbEntity
  8
0
100
AcDbLine
 62
7
  6
CONTINUOUS
 10
62.8412041416
 20
126.637387286
 11
62.8412041416
 21
126.137387286
  0
LINE
  5
287
100
AcDbEntity
  8
0
100
AcDbLine
 62
7
  6
CONTINUOUS
 10
62.8412041416
 20
125.637387286
 11
62.8412041416
 21
125.137387286
  0
LINE
  5
288
100
AcDbEntity
  8
0
100
AcDbLine
 62
7
  6
CONTINUOUS
 10
62.8412041416
 20
124.637387286
 11
62.8412041416
 21
124.137387286
  0
LINE
  5
289
100
AcDbEntity
  8
0
100
AcDbLine
 62
7
  6
CONTINUOUS
 10
62.8412041416
 20
123.637387286
 11
62.8412041416
 21
123.137387286
  0
LINE
  5
28A
100
AcDbEntity
  8
0
100
AcDbLine
 62
7
  6
CONTINUOUS
 10
62.8912041416
 20
134.987387286
 11
62.8912041416
 21
134.837387286
  0
LINE
  5
28B
100
AcDbEntity
  8
0
100
AcDbLine
 62
7
  6
CONTINUOUS
 10
62.9912041416
 20
134.987387286
 11
62.9912041416
 21
134.837387286
  0
LINE
  5
28C
100
AcDbEntity
  8
0
100
AcDbLine
 62
7
  6
CONTINUOUS
 10
63.1912041416
 20
121.437387286
 11
63.1912041416
 21
134.337387286
  0
LINE
  5
28D
100
AcDbEntity
  8
0
100
AcDbLine
 62
7
  6
CONTINUOUS
 10
63.2912041416
 20
121.437387286
 11
63.2912041416
 21
134.337387286
  0
LINE
  5
28E
100
AcDbEntity
  8
0
100
AcDbLine
 62
7
  6
CONTINUOUS
 10
63.4912041416
 20
121.437387286
 11
63.4912041416
 21
134.337387286
  0
LINE
  5
28F
100
AcDbEntity
  8
0
100
AcDbLine
 62
7
  6
CONTINUOUS
 10
63.5412041416
 20
132.687387286
 11
63.5412041416
 21
121.1476146353
  0
LINE
  5
290
100
AcDbEntity
  8
0
100
AcDbLine
 62
7
  6
CONTINUOUS
 10
63.5912041416
 20
121.387387286
 11
63.5912041416
 21
134.387387286
  0
LINE
  5
291
100
AcDbEntity
  8
0
100
AcDbLine
 62
7
  6
CONTINUOUS
 10
65.0912041416
 20
111.887387286
 11
65.0912041416
 21
111.737387286
  0
LINE
  5
292
100
AcDbEntity
  8
0
100
AcDbLine
 62
7
  6
CONTINUOUS
 10
65.1231190342
 20
111.887387286
 11
65.1231190342
 21
111.737387286
  0
LINE
  5
293
100
AcDbEntity
  8
0
100
AcDbLine
 62
7
  6
CONTINUOUS
 10
65.218863712
 20
111.887387286
 11
65.218863712
 21
111.737387286
  0
LINE
  5
294
100
AcDbEntity
  8
0
100
AcDbLine
 62
7
  6
CONTINUOUS
 10
65.3465232825
 20
111.887387286
 11
65.3465232825
 21
111.737387286
  0
LINE
  5
295
100
AcDbEntity
  8
0
100
AcDbLine
 62
7
  6
CONTINUOUS
 10
65.4741828641
 20
111.887387286
 11
65.4741828641
 21
111.737387286
  0
LINE
  5
296
100
AcDbEntity
  8
0
100
AcDbLine
 62
7
  6
CONTINUOUS
 10
65.5380126437
 20
111.887387286
 11
65.5380126437
 21
111.737387286
  0
LINE
  5
297
100
AcDbEntity
  8
0
100
AcDbLine
 62
7
  6
CONTINUOUS
 10
65.6018424233
 20
111.887387286
 11
65.6018424233
 21
111.737387286
  0
LINE
  5
298
100
AcDbEntity
  8
0
100
AcDbLine
 62
7
  6
CONTINUOUS
 10
65.6975871375
 20
111.887387286
 11
65.6975871375
 21
111.737387286
  0
LINE
  5
299
100
AcDbEntity
  8
0
100
AcDbLine
 62
7
  6
CONTINUOUS
 10
65.7614169171
 20
111.887387286
 11
65.7614169171
 21
111.737387286
  0
LINE
  5
29A
100
AcDbEntity
  8
0
100
AcDbLine
 62
7
  6
CONTINUOUS
 10
66.5912041416
 20
111.887387286
 11
66.5912041416
 21
111.737387286
  0
LINE
  5
29B
100
AcDbEntity
  8
0
100
AcDbLine
 62
7
  6
CONTINUOUS
 10
61.2912041416
 20
134.137387286
 11
60.7912041416
 21
132.3906183251
  0
LINE
  5
29C
100
AcDbEntity
  8
0
100
AcDbLine
 62
7
  6
CONTINUOUS
 10
95.6005050069
 20
175.2156238733
 11
96.200505007
 21
175.8156238735
  0
LINE
  5
29D
100
AcDbEntity
  8
0
100
AcDbLine
 62
7
  6
CONTINUOUS
 10
59.14525146
 20
132.5350159661
 11
60.029943935
 21
133.3828462546
  0
LINE
  5
29E
100
AcDbEntity
  8
0
100
AcDbLine
 62
7
  6
CONTINUOUS
 10
67.8412041416
 20
111.887387286
 11
67.8412041416
 21
143.887387286
  0
LINE
  5
29F
100
AcDbEntity
  8
0
100
AcDbLine
 62
7
  6
CONTINUOUS
 10
68.4412041416
 20
112.4873872863
 11
68.4412041416
 21
143.2873872857
  0
LINE
  5
2A0
100
AcDbEntity
  8
0
100
AcDbLine
 62
7
  6
CONTINUOUS
 10
95.8505050072
 20
170.2656238742
 11
95.9060605621
 21
170.365623873
  0
LINE
  5
2A1
100
AcDbEntity
  8
0
100
AcDbLine
 62
7
  6
CONTINUOUS
 10
60.1683250076
 20
133.2384486136
 11
59.2836325326
 21
132.3906183251
  0
LINE
  5
2A2
100
AcDbEntity
  8
0
100
AcDbLine
 62
7
  6
CONTINUOUS
 10
59.352823069
 20
132.3184195046
 11
60.2375155439
 21
133.1662497931
  0
LINE
  5
2A3
100
AcDbEntity
  8
0
100
AcDbLine
 62
7
  6
CONTINUOUS
 10
61.8912041416
 20
143.5818317304
 11
61.991204139
 21
143.6373872845
  0
LINE
  5
2A4
100
AcDbEntity
  8
0
100
AcDbLine
 62
7
  6
CONTINUOUS
 10
60.5679308876
 20
121.2578977463
 11
60.2713841779
 21
122.0289191915
  0
LINE
  5
2A5
100
AcDbEntity
  8
0
100
AcDbLine
 62
7
  6
CONTINUOUS
 10
60.4580532992
 20
122.1007150074
 11
60.7546000089
 21
121.3296935622
  0
LINE
  5
2A6
100
AcDbEntity
  8
0
100
AcDbLine
 62
7
  6
CONTINUOUS
 10
60.8479345695
 20
121.3655914701
 11
60.5513878598
 21
122.1366129153
  0
LINE
  5
2A7
100
AcDbEntity
  8
0
100
AcDbLine
 62
7
  6
CONTINUOUS
 10
60.7912041416
 20
123.3841562469
 11
61.2912041416
 21
121.637387286
  0
LINE
  5
2A8
100
AcDbEntity
  8
0
100
AcDbLine
 62
7
  6
CONTINUOUS
 10
86.0005050066
 20
90.8870540725
 11
86.0005050066
 21
86.3870540725
  0
LINE
  5
2A9
100
AcDbEntity
  8
0
100
AcDbLine
 62
7
  6
CONTINUOUS
 10
86.0005050066
 20
44.7180671648
 11
86.0005050066
 21
58.6180671648
  0
LINE
  5
2AA
100
AcDbEntity
  8
0
100
AcDbLine
 62
7
  6
CONTINUOUS
 10
86.0005050066
 20
120.937387286
 11
86.0005050066
 21
134.837387286
  0
LINE
  5
2AB
100
AcDbEntity
  8
0
100
AcDbLine
 62
7
  6
CONTINUOUS
 10
86.0005050066
 20
168.765623873
 11
86.0005050066
 21
173.265623873
  0
LINE
  5
2AC
100
AcDbEntity
  8
0
100
AcDbLine
 62
7
  6
CONTINUOUS
 10
87.5255050066
 20
51.5930671648
 11
87.5255050066
 21
51.0930671648
  0
LINE
  5
2AD
100
AcDbEntity
  8
0
100
AcDbLine
 62
7
  6
CONTINUOUS
 10
87.6755050066
 20
51.2430671648
 11
87.6755050066
 21
51.7430671648
  0
LINE
  5
2AE
100
AcDbEntity
  8
0
100
AcDbLine
 62
7
  6
CONTINUOUS
 10
68.4412041419
 20
112.4873872862
 11
67.8412041418
 21
111.8873872862
  0
LINE
  5
2AF
100
AcDbEntity
  8
0
100
AcDbLine
 62
7
  6
CONTINUOUS
 10
99.100505013
 20
35.6680671648
 11
179.7005050035
 21
35.6680671648
  0
LINE
  5
2B0
100
AcDbEntity
  8
0
100
AcDbLine
 62
7
  6
CONTINUOUS
 10
99.1005050182
 20
36.2680671652
 11
179.7005050039
 21
36.2680671652
  0
LINE
  5
2B1
100
AcDbEntity
  8
0
100
AcDbLine
 62
7
  6
CONTINUOUS
 10
179.7005050066
 20
36.7680671648
 11
165.0038321685
 21
36.7680671652
  0
LINE
  5
2B2
100
AcDbEntity
  8
0
100
AcDbLine
 62
7
  6
CONTINUOUS
 10
88.8255050066
 20
51.7430671648
 11
88.8255050066
 21
51.2430671648
  0
LINE
  5
2B3
100
AcDbEntity
  8
0
100
AcDbLine
 62
7
  6
CONTINUOUS
 10
88.9755050066
 20
51.0930671648
 11
88.9755050066
 21
51.5930671648
  0
LINE
  5
2B4
100
AcDbEntity
  8
0
100
AcDbLine
 62
7
  6
CONTINUOUS
 10
89.7505050066
 20
54.6680671648
 11
89.7505050066
 21
53.7680671648
  0
LINE
  5
2B5
100
AcDbEntity
  8
0
100
AcDbLine
 62
7
  6
CONTINUOUS
 10
89.7505050066
 20
49.5680671648
 11
89.7505050066
 21
48.6680671648
  0
LINE
  5
2B6
100
AcDbEntity
  8
0
100
AcDbLine
 62
7
  6
CONTINUOUS
 10
91.2505050066
 20
48.6680671648
 11
91.2505050066
 21
49.5680671648
  0
LINE
  5
2B7
100
AcDbEntity
  8
0
100
AcDbLine
 62
7
  6
CONTINUOUS
 10
91.2505050066
 20
53.7680671648
 11
91.2505050066
 21
54.6680671648
  0
LINE
  5
2B8
100
AcDbEntity
  8
0
100
AcDbLine
 62
7
  6
CONTINUOUS
 10
91.8255050066
 20
51.5930671648
 11
91.8255050066
 21
51.0930671648
  0
LINE
  5
2B9
100
AcDbEntity
  8
0
100
AcDbLine
 62
7
  6
CONTINUOUS
 10
91.9755050066
 20
51.2430671648
 11
91.9755050066
 21
51.7430671648
  0
LINE
  5
2BA
100
AcDbEntity
  8
0
100
AcDbLine
 62
7
  6
CONTINUOUS
 10
93.1255050066
 20
51.7430671648
 11
93.1255050066
 21
51.2430671648
  0
LINE
  5
2BB
100
AcDbEntity
  8
0
100
AcDbLine
 62
7
  6
CONTINUOUS
 10
93.2755050066
 20
51.0930671648
 11
93.2755050066
 21
51.5930671648
  0
LINE
  5
2BC
100
AcDbEntity
  8
0
100
AcDbLine
 62
7
  6
CONTINUOUS
 10
95.0005050066
 20
51.5930671648
 11
95.0005050066
 21
51.7430671648
  0
LINE
  5
2BD
100
AcDbEntity
  8
0
100
AcDbLine
 62
7
  6
CONTINUOUS
 10
95.6005050066
 20
140.3873872829
 11
95.6005050066
 21
115.3873872924
  0
LINE
  5
2BE
100
AcDbEntity
  8
0
100
AcDbLine
 62
7
  6
CONTINUOUS
 10
95.6005050066
 20
64.1680671584
 11
95.6005050066
 21
39.1680671678
  0
LINE
  5
2BF
100
AcDbEntity
  8
0
100
AcDbLine
 62
7
  6
CONTINUOUS
 10
95.6005050066
 20
84.4370540721
 11
95.6005050066
 21
89.2870540725
  0
LINE
  5
2C0
100
AcDbEntity
  8
0
100
AcDbLine
 62
7
  6
CONTINUOUS
 10
95.6005050066
 20
89.3870540725
 11
95.6005050066
 21
95.2370540729
  0
LINE
  5
2C1
100
AcDbEntity
  8
0
100
AcDbLine
 62
7
  6
CONTINUOUS
 10
95.6005050066
 20
164.4156238726
 11
95.6005050066
 21
170.265623873
  0
LINE
  5
2C2
100
AcDbEntity
  8
0
100
AcDbLine
 62
7
  6
CONTINUOUS
 10
95.6005050066
 20
170.365623873
 11
95.6005050066
 21
175.2156238734
  0
LINE
  5
2C3
100
AcDbEntity
  8
0
100
AcDbLine
 62
7
  6
CONTINUOUS
 10
96.200505007
 20
140.3873872833
 11
96.200505007
 21
115.3873872949
  0
LINE
  5
2C4
100
AcDbEntity
  8
0
100
AcDbLine
 62
7
  6
CONTINUOUS
 10
96.200505007
 20
64.1680671559
 11
96.200505007
 21
39.1680671674
  0
LINE
  5
2C5
100
AcDbEntity
  8
0
100
AcDbLine
 62
7
  6
CONTINUOUS
 10
95.6005050066
 20
44.7180671648
 11
86.0005050066
 21
44.7180671648
  0
LINE
  5
2C6
100
AcDbEntity
  8
0
100
AcDbLine
 62
7
  6
CONTINUOUS
 10
90.0505050066
 20
48.3680671648
 11
90.9505050066
 21
48.3680671648
  0
LINE
  5
2C7
100
AcDbEntity
  8
0
100
AcDbLine
 62
7
  6
CONTINUOUS
 10
90.9505050066
 20
49.8680671648
 11
90.0505050066
 21
49.8680671648
  0
LINE
  5
2C8
100
AcDbEntity
  8
0
100
AcDbLine
 62
7
  6
CONTINUOUS
 10
87.5255050066
 20
51.0930671648
 11
88.9755050066
 21
51.0930671648
  0
LINE
  5
2C9
100
AcDbEntity
  8
0
100
AcDbLine
 62
7
  6
CONTINUOUS
 10
91.8255050066
 20
51.0930671648
 11
93.2755050066
 21
51.0930671648
  0
LINE
  5
2CA
100
AcDbEntity
  8
0
100
AcDbLine
 62
7
  6
CONTINUOUS
 10
93.1255050066
 20
51.2430671648
 11
91.9755050066
 21
51.2430671648
  0
LINE
  5
2CB
100
AcDbEntity
  8
0
100
AcDbLine
 62
7
  6
CONTINUOUS
 10
88.8255050066
 20
51.2430671648
 11
87.6755050066
 21
51.2430671648
  0
LINE
  5
2CC
100
AcDbEntity
  8
0
100
AcDbLine
 62
7
  6
CONTINUOUS
 10
86.0005050066
 20
51.5930671648
 11
87.5255050066
 21
51.5930671648
  0
LINE
  5
2CD
100
AcDbEntity
  8
0
100
AcDbLine
 62
7
  6
CONTINUOUS
 10
88.9755050066
 20
51.5930671648
 11
91.8255050066
 21
51.5930671648
  0
LINE
  5
2CE
100
AcDbEntity
  8
0
100
AcDbLine
 62
7
  6
CONTINUOUS
 10
93.2755050066
 20
51.5930671648
 11
95.6005050066
 21
51.5930671648
  0
LINE
  5
2CF
100
AcDbEntity
  8
0
100
AcDbLine
 62
7
  6
CONTINUOUS
 10
95.6005050066
 20
51.7430671648
 11
93.1255050066
 21
51.7430671648
  0
LINE
  5
2D0
100
AcDbEntity
  8
0
100
AcDbLine
 62
7
  6
CONTINUOUS
 10
91.9755050066
 20
51.7430671648
 11
88.8255050066
 21
51.7430671648
  0
LINE
  5
2D1
100
AcDbEntity
  8
0
100
AcDbLine
 62
7
  6
CONTINUOUS
 10
86.0005050066
 20
51.7430671648
 11
87.6755050066
 21
51.7430671648
  0
LINE
  5
2D2
100
AcDbEntity
  8
0
100
AcDbLine
 62
7
  6
CONTINUOUS
 10
90.0505050066
 20
53.4680671648
 11
90.9505050066
 21
53.4680671648
  0
LINE
  5
2D3
100
AcDbEntity
  8
0
100
AcDbLine
 62
7
  6
CONTINUOUS
 10
57.0412041413
 20
111.8873872863
 11
56.4412041412
 21
112.4873872864
  0
LINE
  5
2D4
100
AcDbEntity
  8
0
100
AcDbLine
 62
7
  6
CONTINUOUS
 10
96.200505007
 20
83.8370540721
 11
95.6005050069
 21
84.4370540722
  0
LINE
  5
2D5
100
AcDbEntity
  8
0
100
AcDbLine
 62
7
  6
CONTINUOUS
 10
95.9060605621
 20
89.2870540725
 11
95.8505050074
 21
89.387054071
  0
LINE
  5
2D6
100
AcDbEntity
  8
0
100
AcDbLine
 62
7
  6
CONTINUOUS
 10
103.6505050066
 20
169.165623873
 11
103.6505050066
 21
168.365623873
  0
LINE
  5
2D7
100
AcDbEntity
  8
0
100
AcDbLine
 62
7
  6
CONTINUOUS
 10
103.6505050066
 20
88.1870540725
 11
103.6505050066
 21
87.3870540725
  0
LINE
  5
2D8
100
AcDbEntity
  8
0
100
AcDbLine
 62
7
  6
CONTINUOUS
 10
103.6505050066
 20
90.4870540725
 11
103.6505050066
 21
91.2870540725
  0
LINE
  5
2D9
100
AcDbEntity
  8
0
100
AcDbLine
 62
7
  6
CONTINUOUS
 10
103.6505050066
 20
171.465623873
 11
103.6505050066
 21
172.265623873
  0
LINE
  5
2DA
100
AcDbEntity
  8
0
100
AcDbLine
 62
7
  6
CONTINUOUS
 10
104.8505050066
 20
172.265623873
 11
104.8505050066
 21
171.465623873
  0
LINE
  5
2DB
100
AcDbEntity
  8
0
100
AcDbLine
 62
7
  6
CONTINUOUS
 10
104.8505050066
 20
91.2870540725
 11
104.8505050066
 21
90.4870540725
  0
LINE
  5
2DC
100
AcDbEntity
  8
0
100
AcDbLine
 62
7
  6
CONTINUOUS
 10
104.8505050066
 20
87.3870540725
 11
104.8505050066
 21
88.1870540725
  0
LINE
  5
2DD
100
AcDbEntity
  8
0
100
AcDbLine
 62
7
  6
CONTINUOUS
 10
104.8505050066
 20
168.365623873
 11
104.8505050066
 21
169.165623873
  0
LINE
  5
2DE
100
AcDbEntity
  8
0
100
AcDbLine
 62
7
  6
CONTINUOUS
 10
106.0505050066
 20
169.165623873
 11
106.0505050066
 21
168.365623873
  0
LINE
  5
2DF
100
AcDbEntity
  8
0
100
AcDbLine
 62
7
  6
CONTINUOUS
 10
106.0505050066
 20
88.1870540725
 11
106.0505050066
 21
87.3870540725
  0
LINE
  5
2E0
100
AcDbEntity
  8
0
100
AcDbLine
 62
7
  6
CONTINUOUS
 10
106.0505050066
 20
90.4870540725
 11
106.0505050066
 21
91.2870540725
  0
LINE
  5
2E1
100
AcDbEntity
  8
0
100
AcDbLine
 62
7
  6
CONTINUOUS
 10
106.0505050066
 20
171.465623873
 11
106.0505050066
 21
172.265623873
  0
LINE
  5
2E2
100
AcDbEntity
  8
0
100
AcDbLine
 62
7
  6
CONTINUOUS
 10
107.2505050066
 20
172.265623873
 11
107.2505050066
 21
171.465623873
  0
LINE
  5
2E3
100
AcDbEntity
  8
0
100
AcDbLine
 62
7
  6
CONTINUOUS
 10
107.2505050066
 20
91.2870540725
 11
107.2505050066
 21
90.4870540725
  0
LINE
  5
2E4
100
AcDbEntity
  8
0
100
AcDbLine
 62
7
  6
CONTINUOUS
 10
107.2505050066
 20
87.3870540725
 11
107.2505050066
 21
88.1870540725
  0
LINE
  5
2E5
100
AcDbEntity
  8
0
100
AcDbLine
 62
7
  6
CONTINUOUS
 10
107.2505050066
 20
168.365623873
 11
107.2505050066
 21
169.165623873
  0
LINE
  5
2E6
100
AcDbEntity
  8
0
100
AcDbLine
 62
7
  6
CONTINUOUS
 10
90.9505050066
 20
54.9680671648
 11
90.0505050066
 21
54.9680671648
  0
LINE
  5
2E7
100
AcDbEntity
  8
0
100
AcDbLine
 62
7
  6
CONTINUOUS
 10
86.0005050066
 20
58.6180671648
 11
95.6005050066
 21
58.6180671648
  0
LINE
  5
2E8
100
AcDbEntity
  8
0
100
AcDbLine
 62
7
  6
CONTINUOUS
 10
60.029943935
 20
122.3919283173
 11
59.14525146
 21
123.2397586059
  0
LINE
  5
2E9
100
AcDbEntity
  8
0
100
AcDbLine
 62
7
  6
CONTINUOUS
 10
59.2836325326
 20
123.3841562469
 11
60.1683250076
 21
122.5363259584
  0
LINE
  5
2EA
100
AcDbEntity
  8
0
100
AcDbLine
 62
7
  6
CONTINUOUS
 10
60.2375155439
 20
122.6085247789
 11
59.352823069
 21
123.4563550674
  0
LINE
  5
2EB
100
AcDbEntity
  8
0
100
AcDbLine
 62
7
  6
CONTINUOUS
 10
108.4505050066
 20
169.165623873
 11
108.4505050066
 21
168.365623873
  0
LINE
  5
2EC
100
AcDbEntity
  8
0
100
AcDbLine
 62
7
  6
CONTINUOUS
 10
108.4505050066
 20
88.1870540725
 11
108.4505050066
 21
87.3870540725
  0
LINE
  5
2ED
100
AcDbEntity
  8
0
100
AcDbLine
 62
7
  6
CONTINUOUS
 10
108.4505050066
 20
90.4870540725
 11
108.4505050066
 21
91.2870540725
  0
LINE
  5
2EE
100
AcDbEntity
  8
0
100
AcDbLine
 62
7
  6
CONTINUOUS
 10
108.4505050066
 20
171.465623873
 11
108.4505050066
 21
172.265623873
  0
LINE
  5
2EF
100
AcDbEntity
  8
0
100
AcDbLine
 62
7
  6
CONTINUOUS
 10
109.6505050066
 20
172.265623873
 11
109.6505050066
 21
171.465623873
  0
LINE
  5
2F0
100
AcDbEntity
  8
0
100
AcDbLine
 62
7
  6
CONTINUOUS
 10
109.6505050066
 20
91.2870540725
 11
109.6505050066
 21
90.4870540725
  0
LINE
  5
2F1
100
AcDbEntity
  8
0
100
AcDbLine
 62
7
  6
CONTINUOUS
 10
109.6505050066
 20
87.3870540725
 11
109.6505050066
 21
88.1870540725
  0
LINE
  5
2F2
100
AcDbEntity
  8
0
100
AcDbLine
 62
7
  6
CONTINUOUS
 10
109.6505050066
 20
168.365623873
 11
109.6505050066
 21
169.165623873
  0
LINE
  5
2F3
100
AcDbEntity
  8
0
100
AcDbLine
 62
7
  6
CONTINUOUS
 10
110.8505050066
 20
169.165623873
 11
110.8505050066
 21
168.365623873
  0
LINE
  5
2F4
100
AcDbEntity
  8
0
100
AcDbLine
 62
7
  6
CONTINUOUS
 10
110.8505050066
 20
88.1870540725
 11
110.8505050066
 21
87.3870540725
  0
LINE
  5
2F5
100
AcDbEntity
  8
0
100
AcDbLine
 62
7
  6
CONTINUOUS
 10
110.8505050066
 20
90.4870540725
 11
110.8505050066
 21
91.2870540725
  0
LINE
  5
2F6
100
AcDbEntity
  8
0
100
AcDbLine
 62
7
  6
CONTINUOUS
 10
110.8505050066
 20
171.465623873
 11
110.8505050066
 21
172.265623873
  0
LINE
  5
2F7
100
AcDbEntity
  8
0
100
AcDbLine
 62
7
  6
CONTINUOUS
 10
112.0505050066
 20
172.265623873
 11
112.0505050066
 21
171.465623873
  0
LINE
  5
2F8
100
AcDbEntity
  8
0
100
AcDbLine
 62
7
  6
CONTINUOUS
 10
112.0505050066
 20
91.2870540725
 11
112.0505050066
 21
90.4870540725
  0
LINE
  5
2F9
100
AcDbEntity
  8
0
100
AcDbLine
 62
7
  6
CONTINUOUS
 10
112.0505050066
 20
87.3870540725
 11
112.0505050066
 21
88.1870540725
  0
LINE
  5
2FA
100
AcDbEntity
  8
0
100
AcDbLine
 62
7
  6
CONTINUOUS
 10
112.0505050066
 20
168.365623873
 11
112.0505050066
 21
169.165623873
  0
LINE
  5
2FB
100
AcDbEntity
  8
0
100
AcDbLine
 62
7
  6
CONTINUOUS
 10
113.2505050066
 20
169.165623873
 11
113.2505050066
 21
168.365623873
  0
LINE
  5
2FC
100
AcDbEntity
  8
0
100
AcDbLine
 62
7
  6
CONTINUOUS
 10
113.2505050066
 20
88.1870540725
 11
113.2505050066
 21
87.3870540725
  0
LINE
  5
2FD
100
AcDbEntity
  8
0
100
AcDbLine
 62
7
  6
CONTINUOUS
 10
113.2505050066
 20
90.4870540725
 11
113.2505050066
 21
91.2870540725
  0
LINE
  5
2FE
100
AcDbEntity
  8
0
100
AcDbLine
 62
7
  6
CONTINUOUS
 10
113.2505050066
 20
171.465623873
 11
113.2505050066
 21
172.265623873
  0
LINE
  5
2FF
100
AcDbEntity
  8
0
100
AcDbLine
 62
7
  6
CONTINUOUS
 10
114.4505050066
 20
172.265623873
 11
114.4505050066
 21
171.465623873
  0
LINE
  5
300
100
AcDbEntity
  8
0
100
AcDbLine
 62
7
  6
CONTINUOUS
 10
114.4505050066
 20
91.2870540725
 11
114.4505050066
 21
90.4870540725
  0
LINE
  5
301
100
AcDbEntity
  8
0
100
AcDbLine
 62
7
  6
CONTINUOUS
 10
114.4505050066
 20
87.3870540725
 11
114.4505050066
 21
88.1870540725
  0
LINE
  5
302
100
AcDbEntity
  8
0
100
AcDbLine
 62
7
  6
CONTINUOUS
 10
114.4505050066
 20
168.365623873
 11
114.4505050066
 21
169.165623873
  0
LINE
  5
303
100
AcDbEntity
  8
0
100
AcDbLine
 62
7
  6
CONTINUOUS
 10
115.6505050066
 20
169.165623873
 11
115.6505050066
 21
168.365623873
  0
LINE
  5
304
100
AcDbEntity
  8
0
100
AcDbLine
 62
7
  6
CONTINUOUS
 10
115.6505050066
 20
88.1870540725
 11
115.6505050066
 21
87.3870540725
  0
LINE
  5
305
100
AcDbEntity
  8
0
100
AcDbLine
 62
7
  6
CONTINUOUS
 10
115.6505050066
 20
90.4870540725
 11
115.6505050066
 21
91.2870540725
  0
LINE
  5
306
100
AcDbEntity
  8
0
100
AcDbLine
 62
7
  6
CONTINUOUS
 10
115.6505050066
 20
171.465623873
 11
115.6505050066
 21
172.265623873
  0
LINE
  5
307
100
AcDbEntity
  8
0
100
AcDbLine
 62
7
  6
CONTINUOUS
 10
116.8505050066
 20
172.265623873
 11
116.8505050066
 21
171.465623873
  0
LINE
  5
308
100
AcDbEntity
  8
0
100
AcDbLine
 62
7
  6
CONTINUOUS
 10
116.8505050066
 20
91.2870540725
 11
116.8505050066
 21
90.4870540725
  0
LINE
  5
309
100
AcDbEntity
  8
0
100
AcDbLine
 62
7
  6
CONTINUOUS
 10
116.8505050066
 20
87.3870540725
 11
116.8505050066
 21
88.1870540725
  0
LINE
  5
30A
100
AcDbEntity
  8
0
100
AcDbLine
 62
7
  6
CONTINUOUS
 10
116.8505050066
 20
168.365623873
 11
116.8505050066
 21
169.165623873
  0
LINE
  5
30B
100
AcDbEntity
  8
0
100
AcDbLine
 62
7
  6
CONTINUOUS
 10
118.0505050066
 20
169.165623873
 11
118.0505050066
 21
168.365623873
  0
LINE
  5
30C
100
AcDbEntity
  8
0
100
AcDbLine
 62
7
  6
CONTINUOUS
 10
118.0505050066
 20
88.1870540725
 11
118.0505050066
 21
87.3870540725
  0
LINE
  5
30D
100
AcDbEntity
  8
0
100
AcDbLine
 62
7
  6
CONTINUOUS
 10
118.0505050066
 20
90.4870540725
 11
118.0505050066
 21
91.2870540725
  0
LINE
  5
30E
100
AcDbEntity
  8
0
100
AcDbLine
 62
7
  6
CONTINUOUS
 10
118.0505050066
 20
171.465623873
 11
118.0505050066
 21
172.265623873
  0
LINE
  5
30F
100
AcDbEntity
  8
0
100
AcDbLine
 62
7
  6
CONTINUOUS
 10
95.6005050069
 20
95.2370540728
 11
96.200505007
 21
95.837054073
  0
LINE
  5
310
100
AcDbEntity
  8
0
100
AcDbLine
 62
7
  6
CONTINUOUS
 10
165.0038321685
 20
66.5680671643
 11
179.7005050509
 21
66.5680671648
  0
LINE
  5
311
100
AcDbEntity
  8
0
100
AcDbLine
 62
7
  6
CONTINUOUS
 10
179.7005050023
 20
67.0680671643
 11
99.1005050076
 21
67.0680671643
  0
LINE
  5
312
100
AcDbEntity
  8
0
100
AcDbLine
 62
7
  6
CONTINUOUS
 10
179.7005050024
 20
67.6680671648
 11
99.1005050088
 21
67.6680671648
  0
LINE
  5
313
100
AcDbEntity
  8
0
100
AcDbLine
 62
7
  6
CONTINUOUS
 10
149.4505050066
 20
67.8180671648
 11
150.5755050066
 21
67.8180671648
  0
LINE
  5
314
100
AcDbEntity
  8
0
100
AcDbLine
 62
7
  6
CONTINUOUS
 10
150.8255050364
 20
67.8180671648
 11
152.0755050066
 21
67.8180671648
  0
LINE
  5
315
100
AcDbEntity
  8
0
100
AcDbLine
 62
7
  6
CONTINUOUS
 10
152.5241882563
 20
67.8180671648
 11
153.2350068291
 21
67.8180671648
  0
LINE
  5
316
100
AcDbEntity
  8
0
100
AcDbLine
 62
7
  6
CONTINUOUS
 10
153.8255051258
 20
67.8180671648
 11
154.2005051258
 21
67.8180671648
  0
LINE
  5
317
100
AcDbEntity
  8
0
100
AcDbLine
 62
7
  6
CONTINUOUS
 10
154.4505048874
 20
67.8180671648
 11
154.6067550066
 21
67.8180671648
  0
LINE
  5
318
100
AcDbEntity
  8
0
100
AcDbLine
 62
7
  6
CONTINUOUS
 10
154.8567551258
 20
67.8180671648
 11
155.9817547681
 21
67.8180671648
  0
LINE
  5
319
100
AcDbEntity
  8
0
100
AcDbLine
 62
7
  6
CONTINUOUS
 10
156.231755245
 20
67.8180671648
 11
157.4817547681
 21
67.8180671648
  0
LINE
  5
31A
100
AcDbEntity
  8
0
100
AcDbLine
 62
7
  6
CONTINUOUS
 10
61.9912041405
 20
112.1373872866
 11
61.8912041416
 21
112.1929428415
  0
LINE
  5
31B
100
AcDbEntity
  8
0
100
AcDbLine
 62
7
  6
CONTINUOUS
 10
119.2505050066
 20
172.265623873
 11
119.2505050066
 21
171.465623873
  0
LINE
  5
31C
100
AcDbEntity
  8
0
100
AcDbLine
 62
7
  6
CONTINUOUS
 10
119.2505050066
 20
91.2870540725
 11
119.2505050066
 21
90.4870540725
  0
LINE
  5
31D
100
AcDbEntity
  8
0
100
AcDbLine
 62
7
  6
CONTINUOUS
 10
119.2505050066
 20
87.3870540725
 11
119.2505050066
 21
88.1870540725
  0
LINE
  5
31E
100
AcDbEntity
  8
0
100
AcDbLine
 62
7
  6
CONTINUOUS
 10
119.2505050066
 20
168.365623873
 11
119.2505050066
 21
169.165623873
  0
LINE
  5
31F
100
AcDbEntity
  8
0
100
AcDbLine
 62
7
  6
CONTINUOUS
 10
120.4505050066
 20
169.165623873
 11
120.4505050066
 21
168.365623873
  0
LINE
  5
320
100
AcDbEntity
  8
0
100
AcDbLine
 62
7
  6
CONTINUOUS
 10
120.4505050066
 20
88.1870540725
 11
120.4505050066
 21
87.3870540725
  0
LINE
  5
321
100
AcDbEntity
  8
0
100
AcDbLine
 62
7
  6
CONTINUOUS
 10
120.4505050066
 20
90.4870540725
 11
120.4505050066
 21
91.2870540725
  0
LINE
  5
322
100
AcDbEntity
  8
0
100
AcDbLine
 62
7
  6
CONTINUOUS
 10
120.4505050066
 20
171.465623873
 11
120.4505050066
 21
172.265623873
  0
LINE
  5
323
100
AcDbEntity
  8
0
100
AcDbLine
 62
7
  6
CONTINUOUS
 10
121.6505050066
 20
172.265623873
 11
121.6505050066
 21
171.465623873
  0
LINE
  5
324
100
AcDbEntity
  8
0
100
AcDbLine
 62
7
  6
CONTINUOUS
 10
121.6505050066
 20
91.2870540725
 11
121.6505050066
 21
90.4870540725
  0
LINE
  5
325
100
AcDbEntity
  8
0
100
AcDbLine
 62
7
  6
CONTINUOUS
 10
121.6505050066
 20
87.3870540725
 11
121.6505050066
 21
88.1870540725
  0
LINE
  5
326
100
AcDbEntity
  8
0
100
AcDbLine
 62
7
  6
CONTINUOUS
 10
121.6505050066
 20
168.365623873
 11
121.6505050066
 21
169.165623873
  0
LINE
  5
327
100
AcDbEntity
  8
0
100
AcDbLine
 62
7
  6
CONTINUOUS
 10
122.8505050066
 20
169.165623873
 11
122.8505050066
 21
168.365623873
  0
LINE
  5
328
100
AcDbEntity
  8
0
100
AcDbLine
 62
7
  6
CONTINUOUS
 10
122.8505050066
 20
88.1870540725
 11
122.8505050066
 21
87.3870540725
  0
LINE
  5
329
100
AcDbEntity
  8
0
100
AcDbLine
 62
7
  6
CONTINUOUS
 10
122.8505050066
 20
90.4870540725
 11
122.8505050066
 21
91.2870540725
  0
LINE
  5
32A
100
AcDbEntity
  8
0
100
AcDbLine
 62
7
  6
CONTINUOUS
 10
122.8505050066
 20
171.465623873
 11
122.8505050066
 21
172.265623873
  0
LINE
  5
32B
100
AcDbEntity
  8
0
100
AcDbLine
 62
7
  6
CONTINUOUS
 10
124.0505050066
 20
172.265623873
 11
124.0505050066
 21
171.465623873
  0
LINE
  5
32C
100
AcDbEntity
  8
0
100
AcDbLine
 62
7
  6
CONTINUOUS
 10
124.0505050066
 20
91.2870540725
 11
124.0505050066
 21
90.4870540725
  0
LINE
  5
32D
100
AcDbEntity
  8
0
100
AcDbLine
 62
7
  6
CONTINUOUS
 10
124.0505050066
 20
87.3870540725
 11
124.0505050066
 21
88.1870540725
  0
LINE
  5
32E
100
AcDbEntity
  8
0
100
AcDbLine
 62
7
  6
CONTINUOUS
 10
124.0505050066
 20
168.365623873
 11
124.0505050066
 21
169.165623873
  0
LINE
  5
32F
100
AcDbEntity
  8
0
100
AcDbLine
 62
7
  6
CONTINUOUS
 10
125.2505050066
 20
169.165623873
 11
125.2505050066
 21
168.365623873
  0
LINE
  5
330
100
AcDbEntity
  8
0
100
AcDbLine
 62
7
  6
CONTINUOUS
 10
125.2505050066
 20
88.1870540725
 11
125.2505050066
 21
87.3870540725
  0
LINE
  5
331
100
AcDbEntity
  8
0
100
AcDbLine
 62
7
  6
CONTINUOUS
 10
125.2505050066
 20
90.4870540725
 11
125.2505050066
 21
91.2870540725
  0
LINE
  5
332
100
AcDbEntity
  8
0
100
AcDbLine
 62
7
  6
CONTINUOUS
 10
125.2505050066
 20
171.465623873
 11
125.2505050066
 21
172.265623873
  0
LINE
  5
333
100
AcDbEntity
  8
0
100
AcDbLine
 62
7
  6
CONTINUOUS
 10
126.4505050066
 20
172.265623873
 11
126.4505050066
 21
171.465623873
  0
LINE
  5
334
100
AcDbEntity
  8
0
100
AcDbLine
 62
7
  6
CONTINUOUS
 10
126.4505050066
 20
91.2870540725
 11
126.4505050066
 21
90.4870540725
  0
LINE
  5
335
100
AcDbEntity
  8
0
100
AcDbLine
 62
7
  6
CONTINUOUS
 10
126.4505050066
 20
87.3870540725
 11
126.4505050066
 21
88.1870540725
  0
LINE
  5
336
100
AcDbEntity
  8
0
100
AcDbLine
 62
7
  6
CONTINUOUS
 10
126.4505050066
 20
168.365623873
 11
126.4505050066
 21
169.165623873
  0
LINE
  5
337
100
AcDbEntity
  8
0
100
AcDbLine
 62
7
  6
CONTINUOUS
 10
127.6505050066
 20
169.165623873
 11
127.6505050066
 21
168.365623873
  0
LINE
  5
338
100
AcDbEntity
  8
0
100
AcDbLine
 62
7
  6
CONTINUOUS
 10
127.6505050066
 20
88.1870540725
 11
127.6505050066
 21
87.3870540725
  0
LINE
  5
339
100
AcDbEntity
  8
0
100
AcDbLine
 62
7
  6
CONTINUOUS
 10
127.6505050066
 20
90.4870540725
 11
127.6505050066
 21
91.2870540725
  0
LINE
  5
33A
100
AcDbEntity
  8
0
100
AcDbLine
 62
7
  6
CONTINUOUS
 10
127.6505050066
 20
171.465623873
 11
127.6505050066
 21
172.265623873
  0
LINE
  5
33B
100
AcDbEntity
  8
0
100
AcDbLine
 62
7
  6
CONTINUOUS
 10
128.8505050066
 20
172.265623873
 11
128.8505050066
 21
171.465623873
  0
LINE
  5
33C
100
AcDbEntity
  8
0
100
AcDbLine
 62
7
  6
CONTINUOUS
 10
128.8505050066
 20
91.2870540725
 11
128.8505050066
 21
90.4870540725
  0
LINE
  5
33D
100
AcDbEntity
  8
0
100
AcDbLine
 62
7
  6
CONTINUOUS
 10
128.8505050066
 20
87.3870540725
 11
128.8505050066
 21
88.1870540725
  0
LINE
  5
33E
100
AcDbEntity
  8
0
100
AcDbLine
 62
7
  6
CONTINUOUS
 10
128.8505050066
 20
168.365623873
 11
128.8505050066
 21
169.165623873
  0
LINE
  5
33F
100
AcDbEntity
  8
0
100
AcDbLine
 62
7
  6
CONTINUOUS
 10
96.2005050072
 20
83.8370540725
 11
182.600505006
 21
83.8370540725
  0
LINE
  5
340
100
AcDbEntity
  8
0
100
AcDbLine
 62
7
  6
CONTINUOUS
 10
95.6005050066
 20
84.4370540725
 11
183.2005050066
 21
84.4370540725
  0
LINE
  5
341
100
AcDbEntity
  8
0
100
AcDbLine
 62
7
  6
CONTINUOUS
 10
182.1002732033
 20
39.1347114763
 11
182.1005050066
 21
39.1344802359
  0
LINE
  5
342
100
AcDbEntity
  8
0
100
AcDbLine
 62
7
  6
CONTINUOUS
 10
67.8412041418
 20
143.8873872858
 11
68.4412041418
 21
143.2873872858
  0
LINE
  5
343
100
AcDbEntity
  8
0
100
AcDbLine
 62
7
  6
CONTINUOUS
 10
130.0505050066
 20
169.165623873
 11
130.0505050066
 21
168.365623873
  0
LINE
  5
344
100
AcDbEntity
  8
0
100
AcDbLine
 62
7
  6
CONTINUOUS
 10
130.0505050066
 20
88.1870540725
 11
130.0505050066
 21
87.3870540725
  0
LINE
  5
345
100
AcDbEntity
  8
0
100
AcDbLine
 62
7
  6
CONTINUOUS
 10
130.0505050066
 20
90.4870540725
 11
130.0505050066
 21
91.2870540725
  0
LINE
  5
346
100
AcDbEntity
  8
0
100
AcDbLine
 62
7
  6
CONTINUOUS
 10
130.0505050066
 20
171.465623873
 11
130.0505050066
 21
172.265623873
  0
LINE
  5
347
100
AcDbEntity
  8
0
100
AcDbLine
 62
7
  6
CONTINUOUS
 10
131.2505050066
 20
172.265623873
 11
131.2505050066
 21
171.465623873
  0
LINE
  5
348
100
AcDbEntity
  8
0
100
AcDbLine
 62
7
  6
CONTINUOUS
 10
131.2505050066
 20
91.2870540725
 11
131.2505050066
 21
90.4870540725
  0
LINE
  5
349
100
AcDbEntity
  8
0
100
AcDbLine
 62
7
  6
CONTINUOUS
 10
131.2505050066
 20
87.3870540725
 11
131.2505050066
 21
88.1870540725
  0
LINE
  5
34A
100
AcDbEntity
  8
0
100
AcDbLine
 62
7
  6
CONTINUOUS
 10
131.2505050066
 20
168.365623873
 11
131.2505050066
 21
169.165623873
  0
LINE
  5
34B
100
AcDbEntity
  8
0
100
AcDbLine
 62
7
  6
CONTINUOUS
 10
132.4505050066
 20
169.165623873
 11
132.4505050066
 21
168.365623873
  0
LINE
  5
34C
100
AcDbEntity
  8
0
100
AcDbLine
 62
7
  6
CONTINUOUS
 10
132.4505050066
 20
88.1870540725
 11
132.4505050066
 21
87.3870540725
  0
LINE
  5
34D
100
AcDbEntity
  8
0
100
AcDbLine
 62
7
  6
CONTINUOUS
 10
132.4505050066
 20
90.4870540725
 11
132.4505050066
 21
91.2870540725
  0
LINE
  5
34E
100
AcDbEntity
  8
0
100
AcDbLine
 62
7
  6
CONTINUOUS
 10
132.4505050066
 20
171.465623873
 11
132.4505050066
 21
172.265623873
  0
LINE
  5
34F
100
AcDbEntity
  8
0
100
AcDbLine
 62
7
  6
CONTINUOUS
 10
133.6505050066
 20
172.265623873
 11
133.6505050066
 21
171.465623873
  0
LINE
  5
350
100
AcDbEntity
  8
0
100
AcDbLine
 62
7
  6
CONTINUOUS
 10
133.6505050066
 20
91.2870540725
 11
133.6505050066
 21
90.4870540725
  0
LINE
  5
351
100
AcDbEntity
  8
0
100
AcDbLine
 62
7
  6
CONTINUOUS
 10
133.6505050066
 20
87.3870540725
 11
133.6505050066
 21
88.1870540725
  0
LINE
  5
352
100
AcDbEntity
  8
0
100
AcDbLine
 62
7
  6
CONTINUOUS
 10
133.6505050066
 20
168.365623873
 11
133.6505050066
 21
169.165623873
  0
LINE
  5
353
100
AcDbEntity
  8
0
100
AcDbLine
 62
7
  6
CONTINUOUS
 10
134.8505050066
 20
169.165623873
 11
134.8505050066
 21
168.365623873
  0
LINE
  5
354
100
AcDbEntity
  8
0
100
AcDbLine
 62
7
  6
CONTINUOUS
 10
134.8505050066
 20
88.1870540725
 11
134.8505050066
 21
87.3870540725
  0
LINE
  5
355
100
AcDbEntity
  8
0
100
AcDbLine
 62
7
  6
CONTINUOUS
 10
134.8505050066
 20
90.4870540725
 11
134.8505050066
 21
91.2870540725
  0
LINE
  5
356
100
AcDbEntity
  8
0
100
AcDbLine
 62
7
  6
CONTINUOUS
 10
134.8505050066
 20
171.465623873
 11
134.8505050066
 21
172.265623873
  0
LINE
  5
357
100
AcDbEntity
  8
0
100
AcDbLine
 62
7
  6
CONTINUOUS
 10
136.0505050066
 20
172.265623873
 11
136.0505050066
 21
171.465623873
  0
LINE
  5
358
100
AcDbEntity
  8
0
100
AcDbLine
 62
7
  6
CONTINUOUS
 10
136.0505050066
 20
91.2870540725
 11
136.0505050066
 21
90.4870540725
  0
LINE
  5
359
100
AcDbEntity
  8
0
100
AcDbLine
 62
7
  6
CONTINUOUS
 10
136.0505050066
 20
87.3870540725
 11
136.0505050066
 21
88.1870540725
  0
LINE
  5
35A
100
AcDbEntity
  8
0
100
AcDbLine
 62
7
  6
CONTINUOUS
 10
136.0505050066
 20
168.365623873
 11
136.0505050066
 21
169.165623873
  0
LINE
  5
35B
100
AcDbEntity
  8
0
100
AcDbLine
 62
7
  6
CONTINUOUS
 10
137.2505050066
 20
172.465623873
 11
137.2505050066
 21
171.265623873
  0
LINE
  5
35C
100
AcDbEntity
  8
0
100
AcDbLine
 62
7
  6
CONTINUOUS
 10
137.2505050066
 20
169.365623873
 11
137.2505050066
 21
168.165623873
  0
LINE
  5
35D
100
AcDbEntity
  8
0
100
AcDbLine
 62
7
  6
CONTINUOUS
 10
137.2505050066
 20
87.1870540725
 11
137.2505050066
 21
88.3870540725
  0
LINE
  5
35E
100
AcDbEntity
  8
0
100
AcDbLine
 62
7
  6
CONTINUOUS
 10
137.2505050066
 20
90.2870540725
 11
137.2505050066
 21
91.4870540725
  0
LINE
  5
35F
100
AcDbEntity
  8
0
100
AcDbLine
 62
7
  6
CONTINUOUS
 10
183.2005050063
 20
164.4156238727
 11
182.6005050061
 21
163.8156238726
  0
LINE
  5
360
100
AcDbEntity
  8
0
100
AcDbLine
 62
7
  6
CONTINUOUS
 10
168.7828756317
 20
142.7883851522
 11
167.6770583383
 21
141.6852532301
  0
LINE
  5
361
100
AcDbEntity
  8
0
100
AcDbLine
 62
7
  6
CONTINUOUS
 10
166.4790945096
 20
140.487255657
 11
166.0005050066
 21
140.0098283627
  0
LINE
  5
362
100
AcDbEntity
  8
0
100
AcDbLine
 62
7
  6
CONTINUOUS
 10
167.9567652256
 20
141.399329558
 11
169.3492211337
 21
142.7883851522
  0
LINE
  5
363
100
AcDbEntity
  8
0
100
AcDbLine
 62
7
  6
CONTINUOUS
 10
166.0005050066
 20
139.4448581764
 11
166.7595569965
 21
140.2020668813
  0
LINE
  5
364
100
AcDbEntity
  8
0
100
AcDbLine
 62
7
  6
CONTINUOUS
 10
155.5130047681
 20
92.6466285439
 11
155.6380050066
 21
92.6785434337
  0
LINE
  5
365
100
AcDbEntity
  8
0
100
AcDbLine
 62
7
  6
CONTINUOUS
 10
155.3255051258
 20
93.2849264072
 11
155.2005048874
 21
93.2530115174
  0
LINE
  5
366
100
AcDbEntity
  8
0
100
AcDbLine
 62
7
  6
CONTINUOUS
 10
150.1067550066
 20
92.6466285439
 11
150.2317549768
 21
92.6785434337
  0
LINE
  5
367
100
AcDbEntity
  8
0
100
AcDbLine
 62
7
  6
CONTINUOUS
 10
149.9192550066
 20
93.2849264072
 11
149.794255014
 21
93.2530115174
  0
LINE
  5
368
100
AcDbEntity
  8
0
100
AcDbLine
 62
7
  6
CONTINUOUS
 10
155.669255245
 20
92.5189689651
 11
155.5130047682
 21
92.4870540725
  0
LINE
  5
369
100
AcDbEntity
  8
0
100
AcDbLine
 62
7
  6
CONTINUOUS
 10
155.1692550066
 20
93.4125859665
 11
155.3255051258
 21
93.4445008563
  0
LINE
  5
36A
100
AcDbEntity
  8
0
100
AcDbLine
 62
7
  6
CONTINUOUS
 10
150.2630050364
 20
92.5189689651
 11
150.1067550066
 21
92.4870540725
  0
LINE
  5
36B
100
AcDbEntity
  8
0
100
AcDbLine
 62
7
  6
CONTINUOUS
 10
149.7630049991
 20
93.4125859665
 11
149.9192550066
 21
93.4445008563
  0
LINE
  5
36C
100
AcDbEntity
  8
0
100
AcDbLine
 62
7
  6
CONTINUOUS
 10
150.0005050066
 20
85.9370540725
 11
156.6005050066
 21
85.9370540725
  0
LINE
  5
36D
100
AcDbEntity
  8
0
100
AcDbLine
 62
7
  6
CONTINUOUS
 10
149.2795844953
 20
86.1370540725
 11
157.3214150665
 21
86.1370540725
  0
LINE
  5
36E
100
AcDbEntity
  8
0
100
AcDbLine
 62
7
  6
CONTINUOUS
 10
95.6005050066
 20
86.3870540725
 11
86.0005050066
 21
86.3870540725
  0
LINE
  5
36F
100
AcDbEntity
  8
0
100
AcDbLine
 62
7
  6
CONTINUOUS
 10
150.0005050066
 20
86.4370540725
 11
156.6005050066
 21
86.4370540725
  0
LINE
  5
370
100
AcDbEntity
  8
0
100
AcDbLine
 62
7
  6
CONTINUOUS
 10
183.2005050066
 20
87.1870540725
 11
157.9924460973
 21
87.1870540725
  0
LINE
  5
371
100
AcDbEntity
  8
0
100
AcDbLine
 62
7
  6
CONTINUOUS
 10
148.6085639159
 20
87.1870540725
 11
137.2505050066
 21
87.1870540725
  0
LINE
  5
372
100
AcDbEntity
  8
0
100
AcDbLine
 62
7
  6
CONTINUOUS
 10
103.8505050066
 20
87.1870540725
 11
104.6505050066
 21
87.1870540725
  0
LINE
  5
373
100
AcDbEntity
  8
0
100
AcDbLine
 62
7
  6
CONTINUOUS
 10
106.2505050066
 20
87.1870540725
 11
107.0505050066
 21
87.1870540725
  0
LINE
  5
374
100
AcDbEntity
  8
0
100
AcDbLine
 62
7
  6
CONTINUOUS
 10
108.6505050066
 20
87.1870540725
 11
109.4505050066
 21
87.1870540725
  0
LINE
  5
375
100
AcDbEntity
  8
0
100
AcDbLine
 62
7
  6
CONTINUOUS
 10
111.0505050066
 20
87.1870540725
 11
111.8505050066
 21
87.1870540725
  0
LINE
  5
376
100
AcDbEntity
  8
0
100
AcDbLine
 62
7
  6
CONTINUOUS
 10
113.4505050066
 20
87.1870540725
 11
114.2505050066
 21
87.1870540725
  0
LINE
  5
377
100
AcDbEntity
  8
0
100
AcDbLine
 62
7
  6
CONTINUOUS
 10
115.8505050066
 20
87.1870540725
 11
116.6505050066
 21
87.1870540725
  0
LINE
  5
378
100
AcDbEntity
  8
0
100
AcDbLine
 62
7
  6
CONTINUOUS
 10
118.2505050066
 20
87.1870540725
 11
119.0505050066
 21
87.1870540725
  0
LINE
  5
379
100
AcDbEntity
  8
0
100
AcDbLine
 62
7
  6
CONTINUOUS
 10
120.6505050066
 20
87.1870540725
 11
121.4505050066
 21
87.1870540725
  0
LINE
  5
37A
100
AcDbEntity
  8
0
100
AcDbLine
 62
7
  6
CONTINUOUS
 10
123.0505050066
 20
87.1870540725
 11
123.8505050066
 21
87.1870540725
  0
LINE
  5
37B
100
AcDbEntity
  8
0
100
AcDbLine
 62
7
  6
CONTINUOUS
 10
125.4505050066
 20
87.1870540725
 11
126.2505050066
 21
87.1870540725
  0
LINE
  5
37C
100
AcDbEntity
  8
0
100
AcDbLine
 62
7
  6
CONTINUOUS
 10
127.8505050066
 20
87.1870540725
 11
128.6505050066
 21
87.1870540725
  0
LINE
  5
37D
100
AcDbEntity
  8
0
100
AcDbLine
 62
7
  6
CONTINUOUS
 10
130.2505050066
 20
87.1870540725
 11
131.0505050066
 21
87.1870540725
  0
LINE
  5
37E
100
AcDbEntity
  8
0
100
AcDbLine
 62
7
  6
CONTINUOUS
 10
132.6505050066
 20
87.1870540725
 11
133.4505050066
 21
87.1870540725
  0
LINE
  5
37F
100
AcDbEntity
  8
0
100
AcDbLine
 62
7
  6
CONTINUOUS
 10
135.0505050066
 20
87.1870540725
 11
135.8505050066
 21
87.1870540725
  0
LINE
  5
380
100
AcDbEntity
  8
0
100
AcDbLine
 62
7
  6
CONTINUOUS
 10
155.1642836601
 20
87.3820540725
 11
151.436726353
 21
87.3820540725
  0
LINE
  5
381
100
AcDbEntity
  8
0
100
AcDbLine
 62
7
  6
CONTINUOUS
 10
148.6127784592
 20
87.8370540725
 11
148.8005050066
 21
87.8370540725
  0
LINE
  5
382
100
AcDbEntity
  8
0
100
AcDbLine
 62
7
  6
CONTINUOUS
 10
157.8005050066
 20
87.8370540725
 11
157.9882315539
 21
87.8370540725
  0
LINE
  5
383
100
AcDbEntity
  8
0
100
AcDbLine
 62
7
  6
CONTINUOUS
 10
151.436726353
 20
88.1320540725
 11
155.1642836601
 21
88.1320540725
  0
LINE
  5
384
100
AcDbEntity
  8
0
100
AcDbLine
 62
7
  6
CONTINUOUS
 10
148.6163446112
 20
88.3870540725
 11
137.2505050066
 21
88.3870540725
  0
LINE
  5
385
100
AcDbEntity
  8
0
100
AcDbLine
 62
7
  6
CONTINUOUS
 10
135.8505050066
 20
88.3870540725
 11
135.0505050066
 21
88.3870540725
  0
LINE
  5
386
100
AcDbEntity
  8
0
100
AcDbLine
 62
7
  6
CONTINUOUS
 10
133.4505050066
 20
88.3870540725
 11
132.6505050066
 21
88.3870540725
  0
LINE
  5
387
100
AcDbEntity
  8
0
100
AcDbLine
 62
7
  6
CONTINUOUS
 10
131.0505050066
 20
88.3870540725
 11
130.2505050066
 21
88.3870540725
  0
LINE
  5
388
100
AcDbEntity
  8
0
100
AcDbLine
 62
7
  6
CONTINUOUS
 10
128.6505050066
 20
88.3870540725
 11
127.8505050066
 21
88.3870540725
  0
LINE
  5
389
100
AcDbEntity
  8
0
100
AcDbLine
 62
7
  6
CONTINUOUS
 10
126.2505050066
 20
88.3870540725
 11
125.4505050066
 21
88.3870540725
  0
LINE
  5
38A
100
AcDbEntity
  8
0
100
AcDbLine
 62
7
  6
CONTINUOUS
 10
123.8505050066
 20
88.3870540725
 11
123.0505050066
 21
88.3870540725
  0
LINE
  5
38B
100
AcDbEntity
  8
0
100
AcDbLine
 62
7
  6
CONTINUOUS
 10
121.4505050066
 20
88.3870540725
 11
120.6505050066
 21
88.3870540725
  0
LINE
  5
38C
100
AcDbEntity
  8
0
100
AcDbLine
 62
7
  6
CONTINUOUS
 10
119.0505050066
 20
88.3870540725
 11
118.2505050066
 21
88.3870540725
  0
LINE
  5
38D
100
AcDbEntity
  8
0
100
AcDbLine
 62
7
  6
CONTINUOUS
 10
116.6505050066
 20
88.3870540725
 11
115.8505050066
 21
88.3870540725
  0
LINE
  5
38E
100
AcDbEntity
  8
0
100
AcDbLine
 62
7
  6
CONTINUOUS
 10
114.2505050066
 20
88.3870540725
 11
113.4505050066
 21
88.3870540725
  0
LINE
  5
38F
100
AcDbEntity
  8
0
100
AcDbLine
 62
7
  6
CONTINUOUS
 10
111.8505050066
 20
88.3870540725
 11
111.0505050066
 21
88.3870540725
  0
LINE
  5
390
100
AcDbEntity
  8
0
100
AcDbLine
 62
7
  6
CONTINUOUS
 10
109.4505050066
 20
88.3870540725
 11
108.6505050066
 21
88.3870540725
  0
LINE
  5
391
100
AcDbEntity
  8
0
100
AcDbLine
 62
7
  6
CONTINUOUS
 10
107.0505050066
 20
88.3870540725
 11
106.2505050066
 21
88.3870540725
  0
LINE
  5
392
100
AcDbEntity
  8
0
100
AcDbLine
 62
7
  6
CONTINUOUS
 10
104.6505050066
 20
88.3870540725
 11
103.8505050066
 21
88.3870540725
  0
LINE
  5
393
100
AcDbEntity
  8
0
100
AcDbLine
 62
7
  6
CONTINUOUS
 10
157.9846654019
 20
88.3870540725
 11
183.2005050066
 21
88.3870540725
  0
LINE
  5
394
100
AcDbEntity
  8
0
100
AcDbLine
 62
7
  6
CONTINUOUS
 10
156.6005050066
 20
89.0770540725
 11
150.0005050066
 21
89.0770540725
  0
LINE
  5
395
100
AcDbEntity
  8
0
100
AcDbLine
 62
7
  6
CONTINUOUS
 10
95.6005050066
 20
89.2870540725
 11
149.1473344492
 21
89.2870540725
  0
LINE
  5
396
100
AcDbEntity
  8
0
100
AcDbLine
 62
7
  6
CONTINUOUS
 10
157.453675564
 20
89.2870540725
 11
183.2005050066
 21
89.2870540725
  0
LINE
  5
397
100
AcDbEntity
  8
0
100
AcDbLine
 62
7
  6
CONTINUOUS
 10
156.6005050066
 20
89.3770540725
 11
150.0005050066
 21
89.3770540725
  0
LINE
  5
398
100
AcDbEntity
  8
0
100
AcDbLine
 62
7
  6
CONTINUOUS
 10
95.6005050066
 20
89.3870540725
 11
149.2963033309
 21
89.3870540725
  0
LINE
  5
399
100
AcDbEntity
  8
0
100
AcDbLine
 62
7
  6
CONTINUOUS
 10
157.3047066822
 20
89.3870540725
 11
183.2005050066
 21
89.3870540725
  0
LINE
  5
39A
100
AcDbEntity
  8
0
100
AcDbLine
 62
7
  6
CONTINUOUS
 10
149.3902987345
 20
89.4370540725
 11
157.2107112699
 21
89.4370540725
  0
LINE
  5
39B
100
AcDbEntity
  8
0
100
AcDbLine
 62
7
  6
CONTINUOUS
 10
156.6005050066
 20
89.5770540725
 11
150.0005050066
 21
89.5770540725
  0
LINE
  5
39C
100
AcDbEntity
  8
0
100
AcDbLine
 62
7
  6
CONTINUOUS
 10
183.2005050066
 20
90.2870540725
 11
137.2505050066
 21
90.2870540725
  0
LINE
  5
39D
100
AcDbEntity
  8
0
100
AcDbLine
 62
7
  6
CONTINUOUS
 10
135.8505050066
 20
90.2870540725
 11
135.0505050066
 21
90.2870540725
  0
LINE
  5
39E
100
AcDbEntity
  8
0
100
AcDbLine
 62
7
  6
CONTINUOUS
 10
133.4505050066
 20
90.2870540725
 11
132.6505050066
 21
90.2870540725
  0
LINE
  5
39F
100
AcDbEntity
  8
0
100
AcDbLine
 62
7
  6
CONTINUOUS
 10
131.0505050066
 20
90.2870540725
 11
130.2505050066
 21
90.2870540725
  0
LINE
  5
3A0
100
AcDbEntity
  8
0
100
AcDbLine
 62
7
  6
CONTINUOUS
 10
128.6505050066
 20
90.2870540725
 11
127.8505050066
 21
90.2870540725
  0
LINE
  5
3A1
100
AcDbEntity
  8
0
100
AcDbLine
 62
7
  6
CONTINUOUS
 10
126.2505050066
 20
90.2870540725
 11
125.4505050066
 21
90.2870540725
  0
LINE
  5
3A2
100
AcDbEntity
  8
0
100
AcDbLine
 62
7
  6
CONTINUOUS
 10
123.8505050066
 20
90.2870540725
 11
123.0505050066
 21
90.2870540725
  0
LINE
  5
3A3
100
AcDbEntity
  8
0
100
AcDbLine
 62
7
  6
CONTINUOUS
 10
121.4505050066
 20
90.2870540725
 11
120.6505050066
 21
90.2870540725
  0
LINE
  5
3A4
100
AcDbEntity
  8
0
100
AcDbLine
 62
7
  6
CONTINUOUS
 10
119.0505050066
 20
90.2870540725
 11
118.2505050066
 21
90.2870540725
  0
LINE
  5
3A5
100
AcDbEntity
  8
0
100
AcDbLine
 62
7
  6
CONTINUOUS
 10
116.6505050066
 20
90.2870540725
 11
115.8505050066
 21
90.2870540725
  0
LINE
  5
3A6
100
AcDbEntity
  8
0
100
AcDbLine
 62
7
  6
CONTINUOUS
 10
114.2505050066
 20
90.2870540725
 11
113.4505050066
 21
90.2870540725
  0
LINE
  5
3A7
100
AcDbEntity
  8
0
100
AcDbLine
 62
7
  6
CONTINUOUS
 10
111.8505050066
 20
90.2870540725
 11
111.0505050066
 21
90.2870540725
  0
LINE
  5
3A8
100
AcDbEntity
  8
0
100
AcDbLine
 62
7
  6
CONTINUOUS
 10
109.4505050066
 20
90.2870540725
 11
108.6505050066
 21
90.2870540725
  0
LINE
  5
3A9
100
AcDbEntity
  8
0
100
AcDbLine
 62
7
  6
CONTINUOUS
 10
107.0505050066
 20
90.2870540725
 11
106.2505050066
 21
90.2870540725
  0
LINE
  5
3AA
100
AcDbEntity
  8
0
100
AcDbLine
 62
7
  6
CONTINUOUS
 10
104.6505050066
 20
90.2870540725
 11
103.8505050066
 21
90.2870540725
  0
LINE
  5
3AB
100
AcDbEntity
  8
0
100
AcDbLine
 62
7
  6
CONTINUOUS
 10
158.0005050066
 20
90.4870540725
 11
159.7005050066
 21
90.4870540725
  0
LINE
  5
3AC
100
AcDbEntity
  8
0
100
AcDbLine
 62
7
  6
CONTINUOUS
 10
86.0005050066
 20
90.8870540725
 11
95.6005050066
 21
90.8870540725
  0
LINE
  5
3AD
100
AcDbEntity
  8
0
100
AcDbLine
 62
7
  6
CONTINUOUS
 10
159.7005050066
 20
91.0870540725
 11
158.0005050066
 21
91.0870540725
  0
LINE
  5
3AE
100
AcDbEntity
  8
0
100
AcDbLine
 62
7
  6
CONTINUOUS
 10
103.8505050066
 20
91.4870540725
 11
104.6505050066
 21
91.4870540725
  0
LINE
  5
3AF
100
AcDbEntity
  8
0
100
AcDbLine
 62
7
  6
CONTINUOUS
 10
106.2505050066
 20
91.4870540725
 11
107.0505050066
 21
91.4870540725
  0
LINE
  5
3B0
100
AcDbEntity
  8
0
100
AcDbLine
 62
7
  6
CONTINUOUS
 10
108.6505050066
 20
91.4870540725
 11
109.4505050066
 21
91.4870540725
  0
LINE
  5
3B1
100
AcDbEntity
  8
0
100
AcDbLine
 62
7
  6
CONTINUOUS
 10
111.0505050066
 20
91.4870540725
 11
111.8505050066
 21
91.4870540725
  0
LINE
  5
3B2
100
AcDbEntity
  8
0
100
AcDbLine
 62
7
  6
CONTINUOUS
 10
113.4505050066
 20
91.4870540725
 11
114.2505050066
 21
91.4870540725
  0
LINE
  5
3B3
100
AcDbEntity
  8
0
100
AcDbLine
 62
7
  6
CONTINUOUS
 10
115.8505050066
 20
91.4870540725
 11
116.6505050066
 21
91.4870540725
  0
LINE
  5
3B4
100
AcDbEntity
  8
0
100
AcDbLine
 62
7
  6
CONTINUOUS
 10
118.2505050066
 20
91.4870540725
 11
119.0505050066
 21
91.4870540725
  0
LINE
  5
3B5
100
AcDbEntity
  8
0
100
AcDbLine
 62
7
  6
CONTINUOUS
 10
120.6505050066
 20
91.4870540725
 11
121.4505050066
 21
91.4870540725
  0
LINE
  5
3B6
100
AcDbEntity
  8
0
100
AcDbLine
 62
7
  6
CONTINUOUS
 10
123.0505050066
 20
91.4870540725
 11
123.8505050066
 21
91.4870540725
  0
LINE
  5
3B7
100
AcDbEntity
  8
0
100
AcDbLine
 62
7
  6
CONTINUOUS
 10
125.4505050066
 20
91.4870540725
 11
126.2505050066
 21
91.4870540725
  0
LINE
  5
3B8
100
AcDbEntity
  8
0
100
AcDbLine
 62
7
  6
CONTINUOUS
 10
127.8505050066
 20
91.4870540725
 11
128.6505050066
 21
91.4870540725
  0
LINE
  5
3B9
100
AcDbEntity
  8
0
100
AcDbLine
 62
7
  6
CONTINUOUS
 10
130.2505050066
 20
91.4870540725
 11
131.0505050066
 21
91.4870540725
  0
LINE
  5
3BA
100
AcDbEntity
  8
0
100
AcDbLine
 62
7
  6
CONTINUOUS
 10
132.6505050066
 20
91.4870540725
 11
133.4505050066
 21
91.4870540725
  0
LINE
  5
3BB
100
AcDbEntity
  8
0
100
AcDbLine
 62
7
  6
CONTINUOUS
 10
135.0505050066
 20
91.4870540725
 11
135.8505050066
 21
91.4870540725
  0
LINE
  5
3BC
100
AcDbEntity
  8
0
100
AcDbLine
 62
7
  6
CONTINUOUS
 10
137.2505050066
 20
91.4870540725
 11
183.2005050066
 21
91.4870540725
  0
LINE
  5
3BD
100
AcDbEntity
  8
0
100
AcDbLine
 62
7
  6
CONTINUOUS
 10
149.9192550066
 20
92.4870540725
 11
150.1067550066
 21
92.4870540725
  0
LINE
  5
3BE
100
AcDbEntity
  8
0
100
AcDbLine
 62
7
  6
CONTINUOUS
 10
151.3255050066
 20
92.4870540725
 11
151.575504947
 21
92.4870540725
  0
LINE
  5
3BF
100
AcDbEntity
  8
0
100
AcDbLine
 62
7
  6
CONTINUOUS
 10
152.5241882563
 20
92.4870540725
 11
152.7350067695
 21
92.4870540725
  0
LINE
  5
3C0
100
AcDbEntity
  8
0
100
AcDbLine
 62
7
  6
CONTINUOUS
 10
154.0130051258
 20
92.4870540725
 11
154.2005051258
 21
92.4870540725
  0
LINE
  5
3C1
100
AcDbEntity
  8
0
100
AcDbLine
 62
7
  6
CONTINUOUS
 10
154.4505048874
 20
92.4870540725
 11
154.6067550066
 21
92.4870540725
  0
LINE
  5
3C2
100
AcDbEntity
  8
0
100
AcDbLine
 62
7
  6
CONTINUOUS
 10
155.3255051258
 20
92.4870540725
 11
155.5130047681
 21
92.4870540725
  0
LINE
  5
3C3
100
AcDbEntity
  8
0
100
AcDbLine
 62
7
  6
CONTINUOUS
 10
156.231755245
 20
92.4870540725
 11
156.419255245
 21
92.4870540725
  0
LINE
  5
3C4
100
AcDbEntity
  8
0
100
AcDbLine
 62
7
  6
CONTINUOUS
 10
157.2942547681
 20
92.4870540725
 11
157.4817547681
 21
92.4870540725
  0
LINE
  5
3C5
100
AcDbEntity
  8
0
100
AcDbLine
 62
7
  6
CONTINUOUS
 10
155.5130047681
 20
92.6466285439
 11
155.3255051258
 21
92.6466285439
  0
LINE
  5
3C6
100
AcDbEntity
  8
0
100
AcDbLine
 62
7
  6
CONTINUOUS
 10
154.6067550066
 20
92.6466285439
 11
154.4505048874
 21
92.6466285439
  0
LINE
  5
3C7
100
AcDbEntity
  8
0
100
AcDbLine
 62
7
  6
CONTINUOUS
 10
150.1067550066
 20
92.6466285439
 11
149.9192550066
 21
92.6466285439
  0
LINE
  5
3C8
100
AcDbEntity
  8
0
100
AcDbLine
 62
7
  6
CONTINUOUS
 10
155.0442551258
 20
92.870032795
 11
154.8567551258
 21
92.870032795
  0
LINE
  5
3C9
100
AcDbEntity
  8
0
100
AcDbLine
 62
7
  6
CONTINUOUS
 10
149.6380050066
 20
92.870032795
 11
149.4505050066
 21
92.870032795
  0
LINE
  5
3CA
100
AcDbEntity
  8
0
100
AcDbLine
 62
7
  6
CONTINUOUS
 10
156.5442547681
 20
92.870032795
 11
157.169255245
 21
92.870032795
  0
LINE
  5
3CB
100
AcDbEntity
  8
0
100
AcDbLine
 62
7
  6
CONTINUOUS
 10
157.1380050066
 20
92.9976923542
 11
156.5755050066
 21
92.9976923542
  0
LINE
  5
3CC
100
AcDbEntity
  8
0
100
AcDbLine
 62
7
  6
CONTINUOUS
 10
149.4505050066
 20
93.157266848
 11
149.6692549991
 21
93.157266848
  0
LINE
  5
3CD
100
AcDbEntity
  8
0
100
AcDbLine
 62
7
  6
CONTINUOUS
 10
154.8567551258
 20
93.157266848
 11
155.0755050066
 21
93.157266848
  0
LINE
  5
3CE
100
AcDbEntity
  8
0
100
AcDbLine
 62
7
  6
CONTINUOUS
 10
149.9192550066
 20
93.2849264072
 11
150.1067550066
 21
93.2849264072
  0
LINE
  5
3CF
100
AcDbEntity
  8
0
100
AcDbLine
 62
7
  6
CONTINUOUS
 10
155.3255051258
 20
93.2849264072
 11
155.5130047681
 21
93.2849264072
  0
LINE
  5
3D0
100
AcDbEntity
  8
0
100
AcDbLine
 62
7
  6
CONTINUOUS
 10
155.5130047682
 20
93.4445008563
 11
155.3255051258
 21
93.4445008563
  0
LINE
  5
3D1
100
AcDbEntity
  8
0
100
AcDbLine
 62
7
  6
CONTINUOUS
 10
150.1067550066
 20
93.4445008563
 11
149.9192550066
 21
93.4445008563
  0
LINE
  5
3D2
100
AcDbEntity
  8
0
100
AcDbLine
 62
7
  6
CONTINUOUS
 10
149.6067550028
 20
93.8274796234
 11
150.5130049768
 21
93.8274796234
  0
LINE
  5
3D3
100
AcDbEntity
  8
0
100
AcDbLine
 62
7
  6
CONTINUOUS
 10
155.0130048874
 20
93.8274796234
 11
155.9192550066
 21
93.8274796234
  0
LINE
  5
3D4
100
AcDbEntity
  8
0
100
AcDbLine
 62
7
  6
CONTINUOUS
 10
164.5005050066
 20
93.8370540725
 11
165.5005050066
 21
93.8370540725
  0
LINE
  5
3D5
100
AcDbEntity
  8
0
100
AcDbLine
 62
7
  6
CONTINUOUS
 10
156.981755245
 20
93.9870540725
 11
156.7317547681
 21
93.9870540725
  0
LINE
  5
3D6
100
AcDbEntity
  8
0
100
AcDbLine
 62
7
  6
CONTINUOUS
 10
155.9192550066
 20
93.9870540725
 11
154.8567551258
 21
93.9870540725
  0
LINE
  5
3D7
100
AcDbEntity
  8
0
100
AcDbLine
 62
7
  6
CONTINUOUS
 10
154.2005051258
 20
93.9870540725
 11
154.0130051258
 21
93.9870540725
  0
LINE
  5
3D8
100
AcDbEntity
  8
0
100
AcDbLine
 62
7
  6
CONTINUOUS
 10
153.2350068291
 20
93.9870540725
 11
153.0241883159
 21
93.9870540725
  0
LINE
  5
3D9
100
AcDbEntity
  8
0
100
AcDbLine
 62
7
  6
CONTINUOUS
 10
152.0755050066
 20
93.9870540725
 11
151.8880050066
 21
93.9870540725
  0
LINE
  5
3DA
100
AcDbEntity
  8
0
100
AcDbLine
 62
7
  6
CONTINUOUS
 10
151.013004947
 20
93.9870540725
 11
150.8255050364
 21
93.9870540725
  0
LINE
  5
3DB
100
AcDbEntity
  8
0
100
AcDbLine
 62
7
  6
CONTINUOUS
 10
150.5130049768
 20
93.9870540725
 11
149.4505050066
 21
93.9870540725
  0
LINE
  5
3DC
100
AcDbEntity
  8
0
100
AcDbLine
 62
7
  6
CONTINUOUS
 10
165.5005050066
 20
94.8370540725
 11
165.4005050066
 21
94.8370540725
  0
LINE
  5
3DD
100
AcDbEntity
  8
0
100
AcDbLine
 62
7
  6
CONTINUOUS
 10
164.6005050066
 20
94.8370540725
 11
164.5005050066
 21
94.8370540725
  0
LINE
  5
3DE
100
AcDbEntity
  8
0
100
AcDbLine
 62
7
  6
CONTINUOUS
 10
95.6005050066
 20
95.2370540725
 11
164.5005050066
 21
95.2370540728
  0
LINE
  5
3DF
100
AcDbEntity
  8
0
100
AcDbLine
 62
7
  6
CONTINUOUS
 10
164.6005050066
 20
95.2370540725
 11
165.4005050066
 21
95.2370540725
  0
LINE
  5
3E0
100
AcDbEntity
  8
0
100
AcDbLine
 62
7
  6
CONTINUOUS
 10
165.5005050066
 20
95.2370540727
 11
183.2005050066
 21
95.2370540725
  0
LINE
  5
3E1
100
AcDbEntity
  8
0
100
AcDbLine
 62
7
  6
CONTINUOUS
 10
96.2005050072
 20
95.8370540725
 11
182.600505006
 21
95.8370540725
  0
LINE
  5
3E2
100
AcDbEntity
  8
0
100
AcDbLine
 62
7
  6
CONTINUOUS
 10
149.9192550066
 20
92.4870540725
 11
149.7630049991
 21
92.5189689651
  0
LINE
  5
3E3
100
AcDbEntity
  8
0
100
AcDbLine
 62
7
  6
CONTINUOUS
 10
150.1067550066
 20
93.4445008563
 11
150.2630050364
 21
93.4125859665
  0
LINE
  5
3E4
100
AcDbEntity
  8
0
100
AcDbLine
 62
7
  6
CONTINUOUS
 10
155.3255051258
 20
92.4870540725
 11
155.1692550066
 21
92.5189689651
  0
LINE
  5
3E5
100
AcDbEntity
  8
0
100
AcDbLine
 62
7
  6
CONTINUOUS
 10
155.5130047682
 20
93.4445008563
 11
155.669255245
 21
93.4125859665
  0
LINE
  5
3E6
100
AcDbEntity
  8
0
100
AcDbLine
 62
7
  6
CONTINUOUS
 10
149.794255014
 20
92.6785434337
 11
149.9192550066
 21
92.6466285439
  0
LINE
  5
3E7
100
AcDbEntity
  8
0
100
AcDbLine
 62
7
  6
CONTINUOUS
 10
150.2317549768
 20
93.2530115174
 11
150.1067550066
 21
93.2849264072
  0
LINE
  5
3E8
100
AcDbEntity
  8
0
100
AcDbLine
 62
7
  6
CONTINUOUS
 10
155.2005048874
 20
92.6785434337
 11
155.3255051258
 21
92.6466285439
  0
LINE
  5
3E9
100
AcDbEntity
  8
0
100
AcDbLine
 62
7
  6
CONTINUOUS
 10
155.6380050066
 20
93.2530115174
 11
155.5130047682
 21
93.2849264072
  0
LINE
  5
3EA
100
AcDbEntity
  8
0
100
AcDbLine
 62
7
  6
CONTINUOUS
 10
149.7630049991
 20
92.5189689651
 11
149.6067550028
 21
92.6147136429
  0
LINE
  5
3EB
100
AcDbEntity
  8
0
100
AcDbLine
 62
7
  6
CONTINUOUS
 10
149.700505014
 20
92.7423732134
 11
149.794255014
 21
92.6785434337
  0
LINE
  5
3EC
100
AcDbEntity
  8
0
100
AcDbLine
 62
7
  6
CONTINUOUS
 10
148.2963033309
 20
89.2870540725
 11
148.2963033309
 21
89.3870540725
  0
LINE
  5
3ED
100
AcDbEntity
  8
0
100
AcDbLine
 62
7
  6
CONTINUOUS
 10
148.5005050066
 20
89.3870540725
 11
148.5005050066
 21
89.2870540725
  0
LINE
  5
3EE
100
AcDbEntity
  8
0
100
AcDbLine
 62
7
  6
CONTINUOUS
 10
148.8005050066
 20
88.1770540725
 11
148.8005050066
 21
87.3370540725
  0
LINE
  5
3EF
100
AcDbEntity
  8
0
100
AcDbLine
 62
7
  6
CONTINUOUS
 10
149.1005050066
 20
88.1770540725
 11
149.1005050066
 21
87.3370540725
  0
LINE
  5
3F0
100
AcDbEntity
  8
0
100
AcDbLine
 62
7
  6
CONTINUOUS
 10
149.4505050066
 20
111.887387286
 11
149.4505050066
 21
111.737387286
  0
LINE
  5
3F1
100
AcDbEntity
  8
0
100
AcDbLine
 62
7
  6
CONTINUOUS
 10
149.4505050066
 20
93.9870540725
 11
149.4505050066
 21
93.157266848
  0
LINE
  5
3F2
100
AcDbEntity
  8
0
100
AcDbLine
 62
7
  6
CONTINUOUS
 10
149.4505050066
 20
67.6680671648
 11
149.4505050066
 21
67.8180671648
  0
LINE
  5
3F3
100
AcDbEntity
  8
0
100
AcDbLine
 62
7
  6
CONTINUOUS
 10
149.5130050084
 20
67.6680671648
 11
149.5130050084
 21
67.8180671648
  0
LINE
  5
3F4
100
AcDbEntity
  8
0
100
AcDbLine
 62
7
  6
CONTINUOUS
 10
149.6067550028
 20
67.6680671648
 11
149.6067550028
 21
67.8180671648
  0
LINE
  5
3F5
100
AcDbEntity
  8
0
100
AcDbLine
 62
7
  6
CONTINUOUS
 10
149.6067550028
 20
93.316841297
 11
149.6067550028
 21
93.8274796234
  0
LINE
  5
3F6
100
AcDbEntity
  8
0
100
AcDbLine
 62
7
  6
CONTINUOUS
 10
149.7630049991
 20
67.6680671648
 11
149.7630049991
 21
67.8180671648
  0
LINE
  5
3F7
100
AcDbEntity
  8
0
100
AcDbLine
 62
7
  6
CONTINUOUS
 10
148.6163446112
 20
88.3870540725
 11
148.6085639159
 21
87.1870540725
  0
LINE
  5
3F8
100
AcDbEntity
  8
0
100
AcDbLine
 62
7
  6
CONTINUOUS
 10
174.0118266296
 20
142.7883851522
 11
172.9060093364
 21
141.6852532303
  0
LINE
  5
3F9
100
AcDbEntity
  8
0
100
AcDbLine
 62
7
  6
CONTINUOUS
 10
171.704695792
 20
140.4839140759
 11
170.2901114108
 21
139.0727648773
  0
LINE
  5
3FA
100
AcDbEntity
  8
0
100
AcDbLine
 62
7
  6
CONTINUOUS
 10
169.0910644951
 20
137.8737156471
 11
167.6770583384
 21
136.4631432688
  0
LINE
  5
3FB
100
AcDbEntity
  8
0
100
AcDbLine
 62
7
  6
CONTINUOUS
 10
166.4757447941
 20
135.2618041145
 11
165.0611604129
 21
133.8506549159
  0
LINE
  5
3FC
100
AcDbEntity
  8
0
100
AcDbLine
 62
7
  6
CONTINUOUS
 10
173.1898215386
 20
141.4034060355
 11
174.5781721316
 21
142.7883851522
  0
LINE
  5
3FD
100
AcDbEntity
  8
0
100
AcDbLine
 62
7
  6
CONTINUOUS
 10
170.572595669
 20
138.7895929633
 11
171.9885079943
 21
140.2020668813
  0
LINE
  5
3FE
100
AcDbEntity
  8
0
100
AcDbLine
 62
7
  6
CONTINUOUS
 10
167.9608705407
 20
136.1812960741
 11
169.372595669
 21
137.5895929633
  0
LINE
  5
3FF
100
AcDbEntity
  8
0
100
AcDbLine
 62
7
  6
CONTINUOUS
 10
165.3465039239
 20
133.5703353113
 11
166.7595569965
 21
134.97995692
  0
LINE
  5
400
100
AcDbEntity
  8
0
100
AcDbLine
 62
7
  6
CONTINUOUS
 10
179.1716577308
 20
142.7194331066
 11
178.134960334
 21
141.68525323
  0
LINE
  5
401
100
AcDbEntity
  8
0
100
AcDbLine
 62
7
  6
CONTINUOUS
 10
176.9336467899
 20
140.4839140759
 11
175.5219216614
 21
139.0756171866
  0
LINE
  5
402
100
AcDbEntity
  8
0
100
AcDbLine
 62
7
  6
CONTINUOUS
 10
174.3219216617
 20
137.8756171869
 11
172.9060093362
 21
136.4631432688
  0
LINE
  5
403
100
AcDbEntity
  8
0
100
AcDbLine
 62
7
  6
CONTINUOUS
 10
171.704695792
 20
135.2618041145
 11
170.2901114109
 21
133.850654916
  0
LINE
  5
404
100
AcDbEntity
  8
0
100
AcDbLine
 62
7
  6
CONTINUOUS
 10
169.0929706637
 20
132.6535072254
 11
167.6770583384
 21
131.2410333074
  0
LINE
  5
405
100
AcDbEntity
  8
0
100
AcDbLine
 62
7
  6
CONTINUOUS
 10
166.4757447941
 20
130.0396941531
 11
165.0640196657
 21
128.6313972639
  0
LINE
  5
406
100
AcDbEntity
  8
0
100
AcDbLine
 62
7
  6
CONTINUOUS
 10
178.4146672216
 20
141.3993295581
 11
179.5921525473
 21
142.5739366055
  0
LINE
  5
407
100
AcDbEntity
  8
0
100
AcDbLine
 62
7
  6
CONTINUOUS
 10
175.8034528355
 20
138.7914945029
 11
177.2174589921
 21
140.2020668812
  0
LINE
  5
408
100
AcDbEntity
  8
0
100
AcDbLine
 62
7
  6
CONTINUOUS
 10
173.1857162235
 20
136.1772195966
 11
174.6044059197
 21
137.5924452727
  0
LINE
  5
409
100
AcDbEntity
  8
0
100
AcDbLine
 62
7
  6
CONTINUOUS
 10
170.5754549217
 20
133.5703353112
 11
171.9885079945
 21
134.97995692
  0
LINE
  5
40A
100
AcDbEntity
  8
0
100
AcDbLine
 62
7
  6
CONTINUOUS
 10
167.9608705407
 20
130.9591861127
 11
169.3754549219
 21
132.3703353113
  0
LINE
  5
40B
100
AcDbEntity
  8
0
100
AcDbLine
 62
7
  6
CONTINUOUS
 10
165.3455508397
 20
128.3472745801
 11
166.7595569964
 21
129.7578469585
  0
LINE
  5
40C
100
AcDbEntity
  8
0
100
AcDbLine
 62
7
  6
CONTINUOUS
 10
182.1005050066
 20
140.4219720811
 11
180.75087266
 21
139.0756171873
  0
LINE
  5
40D
100
AcDbEntity
  8
0
100
AcDbLine
 62
7
  6
CONTINUOUS
 10
179.5489664909
 20
137.8737156471
 11
178.1349603342
 21
136.4631432688
  0
LINE
  5
40E
100
AcDbEntity
  8
0
100
AcDbLine
 62
7
  6
CONTINUOUS
 10
176.9336467899
 20
135.2618041145
 11
175.5219216614
 21
133.8535072252
  0
LINE
  5
40F
100
AcDbEntity
  8
0
100
AcDbLine
 62
7
  6
CONTINUOUS
 10
174.3219216617
 20
132.6535072255
 11
172.9060093362
 21
131.2410333074
  0
LINE
  5
410
100
AcDbEntity
  8
0
100
AcDbLine
 62
7
  6
CONTINUOUS
 10
171.704695792
 20
130.0396941531
 11
170.2901114109
 21
128.6285449546
  0
LINE
  5
411
100
AcDbEntity
  8
0
100
AcDbLine
 62
7
  6
CONTINUOUS
 10
169.0929706637
 20
127.431397264
 11
167.6770583384
 21
126.018923346
  0
LINE
  5
412
100
AcDbEntity
  8
0
100
AcDbLine
 62
7
  6
CONTINUOUS
 10
166.4750509668
 20
124.8168920494
 11
165.0640196658
 21
123.4092873026
  0
LINE
  5
413
100
AcDbEntity
  8
0
100
AcDbLine
 62
7
  6
CONTINUOUS
 10
181.0324038332
 20
138.7914945028
 11
182.1005050066
 21
139.8570018948
  0
LINE
  5
414
100
AcDbEntity
  8
0
100
AcDbLine
 62
7
  6
CONTINUOUS
 10
178.4187725365
 20
136.1812960741
 11
179.8304976647
 21
137.5895929633
  0
LINE
  5
415
100
AcDbEntity
  8
0
100
AcDbLine
 62
7
  6
CONTINUOUS
 10
175.8034528355
 20
133.5693845415
 11
177.2174589924
 21
134.97995692
  0
LINE
  5
416
100
AcDbEntity
  8
0
100
AcDbLine
 62
7
  6
CONTINUOUS
 10
173.1898215386
 20
130.9591861127
 11
174.6044059198
 21
132.3703353114
  0
LINE
  5
417
100
AcDbEntity
  8
0
100
AcDbLine
 62
7
  6
CONTINUOUS
 10
170.572595669
 20
128.3453730405
 11
171.9885079941
 21
129.7578469583
  0
LINE
  5
418
100
AcDbEntity
  8
0
100
AcDbLine
 62
7
  6
CONTINUOUS
 10
167.9575208252
 20
125.7337345702
 11
169.3754549219
 21
127.14822535
  0
LINE
  5
419
100
AcDbEntity
  8
0
100
AcDbLine
 62
7
  6
CONTINUOUS
 10
165.3436446711
 20
123.1232630791
 11
166.7595569964
 21
124.5357369971
  0
LINE
  5
41A
100
AcDbEntity
  8
0
100
AcDbLine
 62
7
  6
CONTINUOUS
 10
150.2630050364
 20
93.4125859665
 11
150.4192549768
 21
93.316841297
  0
LINE
  5
41B
100
AcDbEntity
  8
0
100
AcDbLine
 62
7
  6
CONTINUOUS
 10
155.1692550066
 20
92.5189689651
 11
155.0130048874
 21
92.6147136429
  0
LINE
  5
41C
100
AcDbEntity
  8
0
100
AcDbLine
 62
7
  6
CONTINUOUS
 10
155.669255245
 20
93.4125859665
 11
155.8255050066
 21
93.316841297
  0
LINE
  5
41D
100
AcDbEntity
  8
0
100
AcDbLine
 62
7
  6
CONTINUOUS
 10
150.3255049768
 20
93.1891817378
 11
150.2317549768
 21
93.2530115174
  0
LINE
  5
41E
100
AcDbEntity
  8
0
100
AcDbLine
 62
7
  6
CONTINUOUS
 10
155.1067548874
 20
92.7423732134
 11
155.2005048874
 21
92.6785434337
  0
LINE
  5
41F
100
AcDbEntity
  8
0
100
AcDbLine
 62
7
  6
CONTINUOUS
 10
155.7317550066
 20
93.1891817378
 11
155.6380050066
 21
93.2530115174
  0
LINE
  5
420
100
AcDbEntity
  8
0
100
AcDbLine
 62
7
  6
CONTINUOUS
 10
149.6067550028
 20
92.6147136429
 11
149.5130050084
 21
92.7423732134
  0
LINE
  5
421
100
AcDbEntity
  8
0
100
AcDbLine
 62
7
  6
CONTINUOUS
 10
150.4192549768
 20
93.316841297
 11
150.5130049768
 21
93.1891817378
  0
LINE
  5
422
100
AcDbEntity
  8
0
100
AcDbLine
 62
7
  6
CONTINUOUS
 10
155.0130048874
 20
92.6147136429
 11
154.9192548874
 21
92.7423732134
  0
LINE
  5
423
100
AcDbEntity
  8
0
100
AcDbLine
 62
7
  6
CONTINUOUS
 10
155.8255050066
 20
93.316841297
 11
155.9192550066
 21
93.1891817378
  0
LINE
  5
424
100
AcDbEntity
  8
0
100
AcDbLine
 62
7
  6
CONTINUOUS
 10
150.3880050066
 20
93.0934370684
 11
150.3255049768
 21
93.1891817378
  0
LINE
  5
425
100
AcDbEntity
  8
0
100
AcDbLine
 62
7
  6
CONTINUOUS
 10
155.7942547681
 20
93.0934370684
 11
155.7317550066
 21
93.1891817378
  0
LINE
  5
426
100
AcDbEntity
  8
0
100
AcDbLine
 62
7
  6
CONTINUOUS
 10
149.5130050084
 20
92.7423732134
 11
149.4505050066
 21
92.870032795
  0
LINE
  5
427
100
AcDbEntity
  8
0
100
AcDbLine
 62
7
  6
CONTINUOUS
 10
149.6380050066
 20
92.870032795
 11
149.700505014
 21
92.7423732134
  0
LINE
  5
428
100
AcDbEntity
  8
0
100
AcDbLine
 62
7
  6
CONTINUOUS
 10
154.9192548874
 20
92.7423732134
 11
154.8567551258
 21
92.870032795
  0
LINE
  5
429
100
AcDbEntity
  8
0
100
AcDbLine
 62
7
  6
CONTINUOUS
 10
155.0442551258
 20
92.870032795
 11
155.1067548874
 21
92.7423732134
  0
LINE
  5
42A
100
AcDbEntity
  8
0
100
AcDbLine
 62
7
  6
CONTINUOUS
 10
150.5130049768
 20
93.1891817378
 11
150.5755050066
 21
93.029607244
  0
LINE
  5
42B
100
AcDbEntity
  8
0
100
AcDbLine
 62
7
  6
CONTINUOUS
 10
151.013004947
 20
93.9870540725
 11
151.4505050662
 21
92.6785434337
  0
LINE
  5
42C
100
AcDbEntity
  8
0
100
AcDbLine
 62
7
  6
CONTINUOUS
 10
151.3255050066
 20
92.4870540725
 11
150.8255050364
 21
93.9870540725
  0
LINE
  5
42D
100
AcDbEntity
  8
0
100
AcDbLine
 62
7
  6
CONTINUOUS
 10
150.4192549768
 20
92.9976923542
 11
150.3880050066
 21
93.0934370684
  0
LINE
  5
42E
100
AcDbEntity
  8
0
100
AcDbLine
 62
7
  6
CONTINUOUS
 10
157.9924460973
 20
87.1870540725
 11
157.9846654019
 21
88.3870540725
  0
LINE
  5
42F
100
AcDbEntity
  8
0
100
AcDbLine
 62
7
  6
CONTINUOUS
 10
149.9192550066
 20
67.6680671648
 11
149.9192550066
 21
67.8180671648
  0
LINE
  5
430
100
AcDbEntity
  8
0
100
AcDbLine
 62
7
  6
CONTINUOUS
 10
150.1067550066
 20
67.6680671648
 11
150.1067550066
 21
67.8180671648
  0
LINE
  5
431
100
AcDbEntity
  8
0
100
AcDbLine
 62
7
  6
CONTINUOUS
 10
150.2630050364
 20
67.6680671648
 11
150.2630050364
 21
67.8180671648
  0
LINE
  5
432
100
AcDbEntity
  8
0
100
AcDbLine
 62
7
  6
CONTINUOUS
 10
150.4192549768
 20
92.9976923542
 11
150.4192549768
 21
92.9338625746
  0
LINE
  5
433
100
AcDbEntity
  8
0
100
AcDbLine
 62
7
  6
CONTINUOUS
 10
150.4192549768
 20
67.6680671648
 11
150.4192549768
 21
67.8180671648
  0
LINE
  5
434
100
AcDbEntity
  8
0
100
AcDbLine
 62
7
  6
CONTINUOUS
 10
150.5130049768
 20
111.887387286
 11
150.5130049768
 21
111.737387286
  0
LINE
  5
435
100
AcDbEntity
  8
0
100
AcDbLine
 62
7
  6
CONTINUOUS
 10
150.5130049768
 20
67.6680671648
 11
150.5130049768
 21
67.8180671648
  0
LINE
  5
436
100
AcDbEntity
  8
0
100
AcDbLine
 62
7
  6
CONTINUOUS
 10
150.5130049768
 20
93.8274796234
 11
150.5130049768
 21
93.9870540725
  0
LINE
  5
437
100
AcDbEntity
  8
0
100
AcDbLine
 62
7
  6
CONTINUOUS
 10
150.5755050066
 20
111.887387286
 11
150.5755050066
 21
111.737387286
  0
LINE
  5
438
100
AcDbEntity
  8
0
100
AcDbLine
 62
7
  6
CONTINUOUS
 10
150.5755050066
 20
67.6680671648
 11
150.5755050066
 21
67.8180671648
  0
LINE
  5
439
100
AcDbEntity
  8
0
100
AcDbLine
 62
7
  6
CONTINUOUS
 10
150.5755050066
 20
92.9019476848
 11
150.5755050066
 21
93.029607244
  0
LINE
  5
43A
100
AcDbEntity
  8
0
100
AcDbLine
 62
7
  6
CONTINUOUS
 10
150.8255050364
 20
111.887387286
 11
150.8255050364
 21
111.737387286
  0
LINE
  5
43B
100
AcDbEntity
  8
0
100
AcDbLine
 62
7
  6
CONTINUOUS
 10
150.8255050364
 20
67.6680671648
 11
150.8255050364
 21
67.8180671648
  0
LINE
  5
43C
100
AcDbEntity
  8
0
100
AcDbLine
 62
7
  6
CONTINUOUS
 10
151.013004947
 20
111.887387286
 11
151.013004947
 21
111.737387286
  0
LINE
  5
43D
100
AcDbEntity
  8
0
100
AcDbLine
 62
7
  6
CONTINUOUS
 10
151.3255050066
 20
67.6680671648
 11
151.3255050066
 21
67.8180671648
  0
LINE
  5
43E
100
AcDbEntity
  8
0
100
AcDbLine
 62
7
  6
CONTINUOUS
 10
151.436726353
 20
87.3820540725
 11
151.436726353
 21
88.1320540725
  0
LINE
  5
43F
100
AcDbEntity
  8
0
100
AcDbLine
 62
7
  6
CONTINUOUS
 10
151.4505050662
 20
111.887387286
 11
151.4505050662
 21
111.737387286
  0
LINE
  5
440
100
AcDbEntity
  8
0
100
AcDbLine
 62
7
  6
CONTINUOUS
 10
151.575504947
 20
67.6680671648
 11
151.575504947
 21
67.8180671648
  0
LINE
  5
441
100
AcDbEntity
  8
0
100
AcDbLine
 62
7
  6
CONTINUOUS
 10
151.8880050066
 20
111.887387286
 11
151.8880050066
 21
111.737387286
  0
LINE
  5
442
100
AcDbEntity
  8
0
100
AcDbLine
 62
7
  6
CONTINUOUS
 10
152.0755050066
 20
111.887387286
 11
152.0755050066
 21
111.737387286
  0
LINE
  5
443
100
AcDbEntity
  8
0
100
AcDbLine
 62
7
  6
CONTINUOUS
 10
152.0755050066
 20
67.6680671648
 11
152.0755050066
 21
67.8180671648
  0
LINE
  5
444
100
AcDbEntity
  8
0
100
AcDbLine
 62
7
  6
CONTINUOUS
 10
152.5241882563
 20
111.887387286
 11
152.5241882563
 21
111.737387286
  0
LINE
  5
445
100
AcDbEntity
  8
0
100
AcDbLine
 62
7
  6
CONTINUOUS
 10
152.5241882563
 20
67.6680671648
 11
152.5241882563
 21
67.8180671648
  0
LINE
  5
446
100
AcDbEntity
  8
0
100
AcDbLine
 62
7
  6
CONTINUOUS
 10
152.7350067695
 20
67.6680671648
 11
152.7350067695
 21
67.8180671648
  0
LINE
  5
447
100
AcDbEntity
  8
0
100
AcDbLine
 62
7
  6
CONTINUOUS
 10
153.0241883159
 20
111.887387286
 11
153.0241883159
 21
111.737387286
  0
LINE
  5
448
100
AcDbEntity
  8
0
100
AcDbLine
 62
7
  6
CONTINUOUS
 10
153.2350068291
 20
111.887387286
 11
153.2350068291
 21
111.737387286
  0
LINE
  5
449
100
AcDbEntity
  8
0
100
AcDbLine
 62
7
  6
CONTINUOUS
 10
153.2350068291
 20
67.6680671648
 11
153.2350068291
 21
67.8180671648
  0
LINE
  5
44A
100
AcDbEntity
  8
0
100
AcDbLine
 62
7
  6
CONTINUOUS
 10
153.8255051258
 20
111.887387286
 11
153.8255051258
 21
111.737387286
  0
LINE
  5
44B
100
AcDbEntity
  8
0
100
AcDbLine
 62
7
  6
CONTINUOUS
 10
153.8255051258
 20
93.7636498438
 11
153.8255051258
 21
93.5083306359
  0
LINE
  5
44C
100
AcDbEntity
  8
0
100
AcDbLine
 62
7
  6
CONTINUOUS
 10
153.8255051258
 20
67.6680671648
 11
153.8255051258
 21
67.8180671648
  0
LINE
  5
44D
100
AcDbEntity
  8
0
100
AcDbLine
 62
7
  6
CONTINUOUS
 10
154.0130051258
 20
111.887387286
 11
154.0130051258
 21
111.737387286
  0
LINE
  5
44E
100
AcDbEntity
  8
0
100
AcDbLine
 62
7
  6
CONTINUOUS
 10
154.0130051258
 20
93.731734954
 11
154.0130051258
 21
92.4870540725
  0
LINE
  5
44F
100
AcDbEntity
  8
0
100
AcDbLine
 62
7
  6
CONTINUOUS
 10
154.0130051258
 20
67.6680671648
 11
154.0130051258
 21
67.8180671648
  0
LINE
  5
450
100
AcDbEntity
  8
0
100
AcDbLine
 62
7
  6
CONTINUOUS
 10
154.2005051258
 20
111.887387286
 11
154.2005051258
 21
111.737387286
  0
LINE
  5
451
100
AcDbEntity
  8
0
100
AcDbLine
 62
7
  6
CONTINUOUS
 10
154.2005051258
 20
67.6680671648
 11
154.2005051258
 21
67.8180671648
  0
LINE
  5
452
100
AcDbEntity
  8
0
100
AcDbLine
 62
7
  6
CONTINUOUS
 10
154.2005051258
 20
92.4870540725
 11
154.2005051258
 21
93.9870540725
  0
LINE
  5
453
100
AcDbEntity
  8
0
100
AcDbLine
 62
7
  6
CONTINUOUS
 10
154.4505048874
 20
111.887387286
 11
154.4505048874
 21
111.737387286
  0
LINE
  5
454
100
AcDbEntity
  8
0
100
AcDbLine
 62
7
  6
CONTINUOUS
 10
154.4505048874
 20
92.6466285439
 11
154.4505048874
 21
92.4870540725
  0
LINE
  5
455
100
AcDbEntity
  8
0
100
AcDbLine
 62
7
  6
CONTINUOUS
 10
154.4505048874
 20
67.6680671648
 11
154.4505048874
 21
67.8180671648
  0
LINE
  5
456
100
AcDbEntity
  8
0
100
AcDbLine
 62
7
  6
CONTINUOUS
 10
154.6067550066
 20
111.887387286
 11
154.6067550066
 21
111.737387286
  0
LINE
  5
457
100
AcDbEntity
  8
0
100
AcDbLine
 62
7
  6
CONTINUOUS
 10
154.6067550066
 20
67.6680671648
 11
154.6067550066
 21
67.8180671648
  0
LINE
  5
458
100
AcDbEntity
  8
0
100
AcDbLine
 62
7
  6
CONTINUOUS
 10
154.6067550066
 20
92.4870540725
 11
154.6067550066
 21
92.6466285439
  0
LINE
  5
459
100
AcDbEntity
  8
0
100
AcDbLine
 62
7
  6
CONTINUOUS
 10
154.8567551258
 20
111.887387286
 11
154.8567551258
 21
111.737387286
  0
LINE
  5
45A
100
AcDbEntity
  8
0
100
AcDbLine
 62
7
  6
CONTINUOUS
 10
154.8567551258
 20
93.9870540725
 11
154.8567551258
 21
93.157266848
  0
LINE
  5
45B
100
AcDbEntity
  8
0
100
AcDbLine
 62
7
  6
CONTINUOUS
 10
154.8567551258
 20
67.6680671648
 11
154.8567551258
 21
67.8180671648
  0
LINE
  5
45C
100
AcDbEntity
  8
0
100
AcDbLine
 62
7
  6
CONTINUOUS
 10
154.9192548874
 20
67.6680671648
 11
154.9192548874
 21
67.8180671648
  0
LINE
  5
45D
100
AcDbEntity
  8
0
100
AcDbLine
 62
7
  6
CONTINUOUS
 10
155.0130048874
 20
67.6680671648
 11
155.0130048874
 21
67.8180671648
  0
LINE
  5
45E
100
AcDbEntity
  8
0
100
AcDbLine
 62
7
  6
CONTINUOUS
 10
155.0130048874
 20
93.316841297
 11
155.0130048874
 21
93.8274796234
  0
LINE
  5
45F
100
AcDbEntity
  8
0
100
AcDbLine
 62
7
  6
CONTINUOUS
 10
155.1642836601
 20
88.1320540725
 11
155.1642836601
 21
87.3820540725
  0
LINE
  5
460
100
AcDbEntity
  8
0
100
AcDbLine
 62
7
  6
CONTINUOUS
 10
155.1692550066
 20
67.6680671648
 11
155.1692550066
 21
67.8180671648
  0
LINE
  5
461
100
AcDbEntity
  8
0
100
AcDbLine
 62
7
  6
CONTINUOUS
 10
155.3255051258
 20
67.6680671648
 11
155.3255051258
 21
67.8180671648
  0
LINE
  5
462
100
AcDbEntity
  8
0
100
AcDbLine
 62
7
  6
CONTINUOUS
 10
155.5130047681
 20
67.6680671648
 11
155.5130047681
 21
67.8180671648
  0
LINE
  5
463
100
AcDbEntity
  8
0
100
AcDbLine
 62
7
  6
CONTINUOUS
 10
155.669255245
 20
67.6680671648
 11
155.669255245
 21
67.8180671648
  0
LINE
  5
464
100
AcDbEntity
  8
0
100
AcDbLine
 62
7
  6
CONTINUOUS
 10
155.8255050066
 20
92.9976923542
 11
155.8255050066
 21
92.9338625746
  0
LINE
  5
465
100
AcDbEntity
  8
0
100
AcDbLine
 62
7
  6
CONTINUOUS
 10
155.8255050066
 20
67.6680671648
 11
155.8255050066
 21
67.8180671648
  0
LINE
  5
466
100
AcDbEntity
  8
0
100
AcDbLine
 62
7
  6
CONTINUOUS
 10
155.9192550066
 20
111.887387286
 11
155.9192550066
 21
111.737387286
  0
LINE
  5
467
100
AcDbEntity
  8
0
100
AcDbLine
 62
7
  6
CONTINUOUS
 10
155.9192550066
 20
67.6680671648
 11
155.9192550066
 21
67.8180671648
  0
LINE
  5
468
100
AcDbEntity
  8
0
100
AcDbLine
 62
7
  6
CONTINUOUS
 10
155.9192550066
 20
93.8274796234
 11
155.9192550066
 21
93.9870540725
  0
LINE
  5
469
100
AcDbEntity
  8
0
100
AcDbLine
 62
7
  6
CONTINUOUS
 10
155.9817547681
 20
111.887387286
 11
155.9817547681
 21
111.737387286
  0
LINE
  5
46A
100
AcDbEntity
  8
0
100
AcDbLine
 62
7
  6
CONTINUOUS
 10
155.9817547681
 20
67.6680671648
 11
155.9817547681
 21
67.8180671648
  0
LINE
  5
46B
100
AcDbEntity
  8
0
100
AcDbLine
 62
7
  6
CONTINUOUS
 10
155.9817547681
 20
92.9019476848
 11
155.9817547681
 21
93.029607244
  0
LINE
  5
46C
100
AcDbEntity
  8
0
100
AcDbLine
 62
7
  6
CONTINUOUS
 10
156.231755245
 20
111.887387286
 11
156.231755245
 21
111.737387286
  0
LINE
  5
46D
100
AcDbEntity
  8
0
100
AcDbLine
 62
7
  6
CONTINUOUS
 10
156.231755245
 20
67.6680671648
 11
156.231755245
 21
67.8180671648
  0
LINE
  5
46E
100
AcDbEntity
  8
0
100
AcDbLine
 62
7
  6
CONTINUOUS
 10
156.419255245
 20
67.6680671648
 11
156.419255245
 21
67.8180671648
  0
LINE
  5
46F
100
AcDbEntity
  8
0
100
AcDbLine
 62
7
  6
CONTINUOUS
 10
156.5442547681
 20
67.6680671648
 11
156.5442547681
 21
67.8180671648
  0
LINE
  5
470
100
AcDbEntity
  8
0
100
AcDbLine
 62
7
  6
CONTINUOUS
 10
156.7317547681
 20
111.887387286
 11
156.7317547681
 21
111.737387286
  0
LINE
  5
471
100
AcDbEntity
  8
0
100
AcDbLine
 62
7
  6
CONTINUOUS
 10
156.981755245
 20
111.887387286
 11
156.981755245
 21
111.737387286
  0
LINE
  5
472
100
AcDbEntity
  8
0
100
AcDbLine
 62
7
  6
CONTINUOUS
 10
157.169255245
 20
67.6680671648
 11
157.169255245
 21
67.8180671648
  0
LINE
  5
473
100
AcDbEntity
  8
0
100
AcDbLine
 62
7
  6
CONTINUOUS
 10
157.2942547681
 20
67.6680671648
 11
157.2942547681
 21
67.8180671648
  0
LINE
  5
474
100
AcDbEntity
  8
0
100
AcDbLine
 62
7
  6
CONTINUOUS
 10
157.4817547681
 20
111.887387286
 11
157.4817547681
 21
111.737387286
  0
LINE
  5
475
100
AcDbEntity
  8
0
100
AcDbLine
 62
7
  6
CONTINUOUS
 10
157.4817547681
 20
67.6680671648
 11
157.4817547681
 21
67.8180671648
  0
LINE
  5
476
100
AcDbEntity
  8
0
100
AcDbLine
 62
7
  6
CONTINUOUS
 10
157.5005050066
 20
87.3370540725
 11
157.5005050066
 21
88.1770540725
  0
LINE
  5
477
100
AcDbEntity
  8
0
100
AcDbLine
 62
7
  6
CONTINUOUS
 10
157.8005050066
 20
87.3370540725
 11
157.8005050066
 21
88.1770540725
  0
LINE
  5
478
100
AcDbEntity
  8
0
100
AcDbLine
 62
7
  6
CONTINUOUS
 10
158.0005050066
 20
91.0870540725
 11
158.0005050066
 21
90.4870540725
  0
LINE
  5
479
100
AcDbEntity
  8
0
100
AcDbLine
 62
7
  6
CONTINUOUS
 10
158.0005050066
 20
89.3870540725
 11
158.0005050066
 21
89.2870540725
  0
LINE
  5
47A
100
AcDbEntity
  8
0
100
AcDbLine
 62
7
  6
CONTINUOUS
 10
158.3047066822
 20
89.3870540725
 11
158.3047066822
 21
89.2870540725
  0
LINE
  5
47B
100
AcDbEntity
  8
0
100
AcDbLine
 62
7
  6
CONTINUOUS
 10
159.7005050066
 20
90.4870540725
 11
159.7005050066
 21
91.0870540725
  0
LINE
  5
47C
100
AcDbEntity
  8
0
100
AcDbLine
 62
7
  6
CONTINUOUS
 10
150.3880050066
 20
92.8381179051
 11
150.4192549768
 21
92.9338625746
  0
LINE
  5
47D
100
AcDbEntity
  8
0
100
AcDbLine
 62
7
  6
CONTINUOUS
 10
155.7942547682
 20
92.8381179052
 11
155.8255050066
 21
92.9338625746
  0
LINE
  5
47E
100
AcDbEntity
  8
0
100
AcDbLine
 62
7
  6
CONTINUOUS
 10
156.8567550066
 20
93.8593945133
 11
156.5755050066
 21
92.9976923542
  0
LINE
  5
47F
100
AcDbEntity
  8
0
100
AcDbLine
 62
7
  6
CONTINUOUS
 10
156.5442547681
 20
92.870032795
 11
156.419255245
 21
92.4870540725
  0
LINE
  5
480
100
AcDbEntity
  8
0
100
AcDbLine
 62
7
  6
CONTINUOUS
 10
152.0755050066
 20
93.9870540725
 11
151.575504947
 21
92.4870540725
  0
LINE
  5
481
100
AcDbEntity
  8
0
100
AcDbLine
 62
7
  6
CONTINUOUS
 10
152.5241882563
 20
92.4870540725
 11
153.0241883159
 21
93.9870540725
  0
LINE
  5
482
100
AcDbEntity
  8
0
100
AcDbLine
 62
7
  6
CONTINUOUS
 10
153.2350068291
 20
93.9870540725
 11
152.7350067695
 21
92.4870540725
  0
LINE
  5
483
100
AcDbEntity
  8
0
100
AcDbLine
 62
7
  6
CONTINUOUS
 10
156.231755245
 20
92.4870540725
 11
156.7317547681
 21
93.9870540725
  0
LINE
  5
484
100
AcDbEntity
  8
0
100
AcDbLine
 62
7
  6
CONTINUOUS
 10
151.4505050662
 20
92.6785434337
 11
151.8880050066
 21
93.9870540725
  0
LINE
  5
485
100
AcDbEntity
  8
0
100
AcDbLine
 62
7
  6
CONTINUOUS
 10
150.5755050066
 20
92.9019476848
 11
150.5130049768
 21
92.7423732134
  0
LINE
  5
486
100
AcDbEntity
  8
0
100
AcDbLine
 62
7
  6
CONTINUOUS
 10
155.9817547681
 20
92.9019476848
 11
155.9192550066
 21
92.7423732134
  0
LINE
  5
487
100
AcDbEntity
  8
0
100
AcDbLine
 62
7
  6
CONTINUOUS
 10
150.3255049768
 20
92.7423732134
 11
150.3880050066
 21
92.8381179051
  0
LINE
  5
488
100
AcDbEntity
  8
0
100
AcDbLine
 62
7
  6
CONTINUOUS
 10
150.5130049768
 20
92.7423732134
 11
150.4192549768
 21
92.6147136429
  0
LINE
  5
489
100
AcDbEntity
  8
0
100
AcDbLine
 62
7
  6
CONTINUOUS
 10
153.8255051258
 20
93.7636498438
 11
154.0130051258
 21
93.9870540725
  0
LINE
  5
48A
100
AcDbEntity
  8
0
100
AcDbLine
 62
7
  6
CONTINUOUS
 10
154.0130051258
 20
93.731734954
 11
153.8255051258
 21
93.5083306359
  0
LINE
  5
48B
100
AcDbEntity
  8
0
100
AcDbLine
 62
7
  6
CONTINUOUS
 10
182.1005050066
 20
135.1998621197
 11
180.7480134065
 21
133.8506549158
  0
LINE
  5
48C
100
AcDbEntity
  8
0
100
AcDbLine
 62
7
  6
CONTINUOUS
 10
179.5480134068
 20
132.6506549161
 11
178.1349603341
 21
131.2410333073
  0
LINE
  5
48D
100
AcDbEntity
  8
0
100
AcDbLine
 62
7
  6
CONTINUOUS
 10
176.9336467899
 20
130.0396941531
 11
175.5219216616
 21
128.631397264
  0
LINE
  5
48E
100
AcDbEntity
  8
0
100
AcDbLine
 62
7
  6
CONTINUOUS
 10
174.3190624085
 20
127.4285449543
 11
172.9060093364
 21
126.0189233461
  0
LINE
  5
48F
100
AcDbEntity
  8
0
100
AcDbLine
 62
7
  6
CONTINUOUS
 10
171.7040019649
 20
124.8168920495
 11
170.2901114107
 21
123.406434993
  0
LINE
  5
490
100
AcDbEntity
  8
0
100
AcDbLine
 62
7
  6
CONTINUOUS
 10
169.0901114108
 20
122.206434993
 11
167.6770583384
 21
120.7968133846
  0
LINE
  5
491
100
AcDbEntity
  8
0
100
AcDbLine
 62
7
  6
CONTINUOUS
 10
166.4798501092
 20
119.5995507079
 11
165.0611604129
 21
118.1843250317
  0
LINE
  5
492
100
AcDbEntity
  8
0
100
AcDbLine
 62
7
  6
CONTINUOUS
 10
181.0333569175
 20
133.5703353112
 11
182.1005050066
 21
134.6348919334
  0
LINE
  5
493
100
AcDbEntity
  8
0
100
AcDbLine
 62
7
  6
CONTINUOUS
 10
178.4187725365
 20
130.9591861127
 11
179.8333569177
 21
132.3703353114
  0
LINE
  5
494
100
AcDbEntity
  8
0
100
AcDbLine
 62
7
  6
CONTINUOUS
 10
175.8034528355
 20
128.3472745801
 11
177.2174589922
 21
129.7578469585
  0
LINE
  5
495
100
AcDbEntity
  8
0
100
AcDbLine
 62
7
  6
CONTINUOUS
 10
173.1905153656
 20
125.7377682934
 11
174.601546667
 21
127.1453730406
  0
LINE
  5
496
100
AcDbEntity
  8
0
100
AcDbLine
 62
7
  6
CONTINUOUS
 10
170.575454922
 20
123.1261153887
 11
171.9885079943
 21
124.535736997
  0
LINE
  5
497
100
AcDbEntity
  8
0
100
AcDbLine
 62
7
  6
CONTINUOUS
 10
167.961564368
 20
120.5156583323
 11
169.372595669
 21
121.9232630791
  0
LINE
  5
498
100
AcDbEntity
  8
0
100
AcDbLine
 62
7
  6
CONTINUOUS
 10
165.3436446711
 20
117.9011531177
 11
166.7595569964
 21
119.3136270357
  0
LINE
  5
499
100
AcDbEntity
  8
0
100
AcDbLine
 62
7
  6
CONTINUOUS
 10
182.1005050066
 20
129.9777521583
 11
180.7480134065
 21
128.6285449544
  0
LINE
  5
49A
100
AcDbEntity
  8
0
100
AcDbLine
 62
7
  6
CONTINUOUS
 10
179.5480134068
 20
127.4285449547
 11
178.1349603341
 21
126.0189233459
  0
LINE
  5
49B
100
AcDbEntity
  8
0
100
AcDbLine
 62
7
  6
CONTINUOUS
 10
176.9329529628
 20
124.8168920496
 11
175.5190624085
 21
123.4064349929
  0
LINE
  5
49C
100
AcDbEntity
  8
0
100
AcDbLine
 62
7
  6
CONTINUOUS
 10
174.3190624086
 20
122.206434993
 11
172.9060093364
 21
120.7968133847
  0
LINE
  5
49D
100
AcDbEntity
  8
0
100
AcDbLine
 62
7
  6
CONTINUOUS
 10
171.7040019647
 20
119.594782088
 11
170.2901114108
 21
118.1843250317
  0
LINE
  5
49E
100
AcDbEntity
  8
0
100
AcDbLine
 62
7
  6
CONTINUOUS
 10
169.0901114108
 20
116.9843250317
 11
167.6770583384
 21
115.5747034232
  0
LINE
  5
49F
100
AcDbEntity
  8
0
100
AcDbLine
 62
7
  6
CONTINUOUS
 10
166.4790945096
 20
114.37670585
 11
166.0005050066
 21
113.8992785556
  0
LINE
  5
4A0
100
AcDbEntity
  8
0
100
AcDbLine
 62
7
  6
CONTINUOUS
 10
181.0304976649
 20
128.3453730407
 11
182.1005050066
 21
129.412781972
  0
LINE
  5
4A1
100
AcDbEntity
  8
0
100
AcDbLine
 62
7
  6
CONTINUOUS
 10
178.4194663635
 20
125.7377682934
 11
179.8304976648
 21
127.1453730405
  0
LINE
  5
4A2
100
AcDbEntity
  8
0
100
AcDbLine
 62
7
  6
CONTINUOUS
 10
175.80440592
 20
123.1261153887
 11
177.2174589922
 21
124.5357369971
  0
LINE
  5
4A3
100
AcDbEntity
  8
0
100
AcDbLine
 62
7
  6
CONTINUOUS
 10
170.572595669
 20
117.9011531177
 11
171.9885079943
 21
119.3136270357
  0
LINE
  5
4A4
100
AcDbEntity
  8
0
100
AcDbLine
 62
7
  6
CONTINUOUS
 10
167.9615643679
 20
115.2935483708
 11
169.372595669
 21
116.7011531177
  0
LINE
  5
4A5
100
AcDbEntity
  8
0
100
AcDbLine
 62
7
  6
CONTINUOUS
 10
166.0005050066
 20
113.3343083694
 11
166.7595569964
 21
114.0915170743
  0
LINE
  5
4A6
100
AcDbEntity
  8
0
100
AcDbLine
 62
7
  6
CONTINUOUS
 10
182.1005050066
 20
124.7556421969
 11
180.7508726597
 21
123.4092873028
  0
LINE
  5
4A7
100
AcDbEntity
  8
0
100
AcDbLine
 62
7
  6
CONTINUOUS
 10
179.5480134067
 20
122.2064349932
 11
178.1349603342
 21
120.7968133846
  0
LINE
  5
4A8
100
AcDbEntity
  8
0
100
AcDbLine
 62
7
  6
CONTINUOUS
 10
176.9329529623
 20
119.5947820876
 11
175.5219216617
 21
118.1871773413
  0
LINE
  5
4A9
100
AcDbEntity
  8
0
100
AcDbLine
 62
7
  6
CONTINUOUS
 10
174.3219216616
 20
116.9871773412
 11
172.9060093363
 21
115.5747034232
  0
LINE
  5
4AA
100
AcDbEntity
  8
0
100
AcDbLine
 62
7
  6
CONTINUOUS
 10
171.7040019647
 20
114.3726721265
 11
170.316345199
 21
112.9883851522
  0
LINE
  5
4AB
100
AcDbEntity
  8
0
100
AcDbLine
 62
7
  6
CONTINUOUS
 10
181.0333569175
 20
123.1261153884
 11
182.1005050066
 21
124.1906720106
  0
LINE
  5
4AC
100
AcDbEntity
  8
0
100
AcDbLine
 62
7
  6
CONTINUOUS
 10
178.4194663633
 20
120.5156583319
 11
179.8304976649
 21
121.9232630793
  0
LINE
  5
4AD
100
AcDbEntity
  8
0
100
AcDbLine
 62
7
  6
CONTINUOUS
 10
175.8044059198
 20
117.9040054272
 11
177.2174589923
 21
119.3136270358
  0
LINE
  5
4AE
100
AcDbEntity
  8
0
100
AcDbLine
 62
7
  6
CONTINUOUS
 10
173.1857162235
 20
115.2887797509
 11
174.6044059197
 21
116.7040054271
  0
LINE
  5
4AF
100
AcDbEntity
  8
0
100
AcDbLine
 62
7
  6
CONTINUOUS
 10
170.882690701
 20
112.9883851522
 11
171.9885079943
 21
114.0915170743
  0
LINE
  5
4B0
100
AcDbEntity
  8
0
100
AcDbLine
 62
7
  6
CONTINUOUS
 10
173.2143176538
 20
120.5452597883
 11
174.6044059197
 21
121.9261153885
  0
LINE
  5
4B1
100
AcDbEntity
  8
0
100
AcDbLine
 62
7
  6
CONTINUOUS
 10
149.794255014
 20
93.2530115174
 11
149.6692549991
 21
93.157266848
  0
LINE
  5
4B2
100
AcDbEntity
  8
0
100
AcDbLine
 62
7
  6
CONTINUOUS
 10
150.2317549768
 20
92.6785434337
 11
150.3255049768
 21
92.7423732134
  0
LINE
  5
4B3
100
AcDbEntity
  8
0
100
AcDbLine
 62
7
  6
CONTINUOUS
 10
149.6067550028
 20
93.316841297
 11
149.7630049991
 21
93.4125859665
  0
LINE
  5
4B4
100
AcDbEntity
  8
0
100
AcDbLine
 62
7
  6
CONTINUOUS
 10
150.4192549768
 20
92.6147136429
 11
150.2630050364
 21
92.5189689651
  0
LINE
  5
4B5
100
AcDbEntity
  8
0
100
AcDbLine
 62
7
  6
CONTINUOUS
 10
154.6067550066
 20
111.737387286
 11
154.4505048874
 21
111.737387286
  0
LINE
  5
4B6
100
AcDbEntity
  8
0
100
AcDbLine
 62
7
  6
CONTINUOUS
 10
65.0912041416
 20
111.737387286
 11
66.5912041416
 21
111.737387286
  0
LINE
  5
4B7
100
AcDbEntity
  8
0
100
AcDbLine
 62
7
  6
CONTINUOUS
 10
149.4505050066
 20
111.737387286
 11
150.5755050066
 21
111.737387286
  0
LINE
  5
4B8
100
AcDbEntity
  8
0
100
AcDbLine
 62
7
  6
CONTINUOUS
 10
150.8255050364
 20
111.737387286
 11
152.0755050066
 21
111.737387286
  0
LINE
  5
4B9
100
AcDbEntity
  8
0
100
AcDbLine
 62
7
  6
CONTINUOUS
 10
152.5241882563
 20
111.737387286
 11
153.2350068291
 21
111.737387286
  0
LINE
  5
4BA
100
AcDbEntity
  8
0
100
AcDbLine
 62
7
  6
CONTINUOUS
 10
153.8255051258
 20
111.737387286
 11
154.2005051258
 21
111.737387286
  0
LINE
  5
4BB
100
AcDbEntity
  8
0
100
AcDbLine
 62
7
  6
CONTINUOUS
 10
154.8567551258
 20
111.737387286
 11
155.9817547681
 21
111.737387286
  0
LINE
  5
4BC
100
AcDbEntity
  8
0
100
AcDbLine
 62
7
  6
CONTINUOUS
 10
156.231755245
 20
111.737387286
 11
157.4817547681
 21
111.737387286
  0
LINE
  5
4BD
100
AcDbEntity
  8
0
100
AcDbLine
 62
7
  6
CONTINUOUS
 10
208.2330310743
 20
111.737387286
 11
209.7330310743
 21
111.737387286
  0
LINE
  5
4BE
100
AcDbEntity
  8
0
100
AcDbLine
 62
7
  6
CONTINUOUS
 10
217.7830310747
 20
111.887387286
 11
212.9330310743
 21
111.887387286
  0
LINE
  5
4BF
100
AcDbEntity
  8
0
100
AcDbLine
 62
7
  6
CONTINUOUS
 10
212.8330310743
 20
111.887387286
 11
206.9830310741
 21
111.887387286
  0
LINE
  5
4C0
100
AcDbEntity
  8
0
100
AcDbLine
 62
7
  6
CONTINUOUS
 10
67.8412041419
 20
111.887387286
 11
61.9912041416
 21
111.887387286
  0
LINE
  5
4C1
100
AcDbEntity
  8
0
100
AcDbLine
 62
7
  6
CONTINUOUS
 10
61.8912041416
 20
111.887387286
 11
57.0412041412
 21
111.887387286
  0
LINE
  5
4C2
100
AcDbEntity
  8
0
100
AcDbLine
 62
7
  6
CONTINUOUS
 10
99.1005050088
 20
111.887387286
 11
179.7005050024
 21
111.887387286
  0
LINE
  5
4C3
100
AcDbEntity
  8
0
100
AcDbLine
 62
7
  6
CONTINUOUS
 10
215.0330310743
 20
112.387387286
 11
213.8330310743
 21
112.387387286
  0
LINE
  5
4C4
100
AcDbEntity
  8
0
100
AcDbLine
 62
7
  6
CONTINUOUS
 10
211.9330310743
 20
112.387387286
 11
210.7330310743
 21
112.387387286
  0
LINE
  5
4C5
100
AcDbEntity
  8
0
100
AcDbLine
 62
7
  6
CONTINUOUS
 10
99.1005050082
 20
112.4873872862
 11
164.5005050066
 21
112.4873872862
  0
LINE
  5
4C6
100
AcDbEntity
  8
0
100
AcDbLine
 62
7
  6
CONTINUOUS
 10
164.6005050066
 20
112.487387286
 11
165.4005050066
 21
112.487387286
  0
LINE
  5
4C7
100
AcDbEntity
  8
0
100
AcDbLine
 62
7
  6
CONTINUOUS
 10
165.5005050066
 20
112.4873872862
 11
179.7005050015
 21
112.4873872862
  0
LINE
  5
4C8
100
AcDbEntity
  8
0
100
AcDbLine
 62
7
  6
CONTINUOUS
 10
176.1116416989
 20
112.9883851522
 11
175.5452961969
 21
112.9883851522
  0
LINE
  5
4C9
100
AcDbEntity
  8
0
100
AcDbLine
 62
7
  6
CONTINUOUS
 10
174.5781721316
 20
112.9883851522
 11
174.0118266296
 21
112.9883851522
  0
LINE
  5
4CA
100
AcDbEntity
  8
0
100
AcDbLine
 62
7
  6
CONTINUOUS
 10
170.882690701
 20
112.9883851522
 11
170.316345199
 21
112.9883851522
  0
LINE
  5
4CB
100
AcDbEntity
  8
0
100
AcDbLine
 62
7
  6
CONTINUOUS
 10
169.3492211337
 20
112.9883851522
 11
168.7828756317
 21
112.9883851522
  0
LINE
  5
4CC
100
AcDbEntity
  8
0
100
AcDbLine
 62
7
  6
CONTINUOUS
 10
164.5005050066
 20
113.387387286
 11
164.6005050066
 21
113.387387286
  0
LINE
  5
4CD
100
AcDbEntity
  8
0
100
AcDbLine
 62
7
  6
CONTINUOUS
 10
165.4005050066
 20
113.387387286
 11
165.5005050066
 21
113.387387286
  0
LINE
  5
4CE
100
AcDbEntity
  8
0
100
AcDbLine
 62
7
  6
CONTINUOUS
 10
165.5005050066
 20
113.487387286
 11
165.4005050066
 21
113.487387286
  0
LINE
  5
4CF
100
AcDbEntity
  8
0
100
AcDbLine
 62
7
  6
CONTINUOUS
 10
164.6005050066
 20
113.487387286
 11
164.5005050066
 21
113.487387286
  0
LINE
  5
4D0
100
AcDbEntity
  8
0
100
AcDbLine
 62
7
  6
CONTINUOUS
 10
165.4005050066
 20
116.387387286
 11
164.6005050066
 21
116.387387286
  0
LINE
  5
4D1
100
AcDbEntity
  8
0
100
AcDbLine
 62
7
  6
CONTINUOUS
 10
165.5005050066
 20
116.487387286
 11
164.5005050066
 21
116.487387286
  0
LINE
  5
4D2
100
AcDbEntity
  8
0
100
AcDbLine
 62
7
  6
CONTINUOUS
 10
96.200505007
 20
163.8156238726
 11
95.6005050069
 21
164.4156238727
  0
LINE
  5
4D3
100
AcDbEntity
  8
0
100
AcDbLine
 62
7
  6
CONTINUOUS
 10
155.9192550066
 20
93.1891817378
 11
155.9817547681
 21
93.029607244
  0
LINE
  5
4D4
100
AcDbEntity
  8
0
100
AcDbLine
 62
7
  6
CONTINUOUS
 10
156.981755245
 20
93.9870540725
 11
157.4817547681
 21
92.4870540725
  0
LINE
  5
4D5
100
AcDbEntity
  8
0
100
AcDbLine
 62
7
  6
CONTINUOUS
 10
155.8255050066
 20
92.9976923542
 11
155.7942547681
 21
93.0934370684
  0
LINE
  5
4D6
100
AcDbEntity
  8
0
100
AcDbLine
 62
7
  6
CONTINUOUS
 10
157.2942547681
 20
92.4870540725
 11
157.169255245
 21
92.870032795
  0
LINE
  5
4D7
100
AcDbEntity
  8
0
100
AcDbLine
 62
7
  6
CONTINUOUS
 10
157.1380050066
 20
92.9976923542
 11
156.8567550066
 21
93.8593945133
  0
LINE
  5
4D8
100
AcDbEntity
  8
0
100
AcDbLine
 62
7
  6
CONTINUOUS
 10
164.5005050066
 20
93.8370540725
 11
164.5005050066
 21
95.8370540726
  0
LINE
  5
4D9
100
AcDbEntity
  8
0
100
AcDbLine
 62
7
  6
CONTINUOUS
 10
164.5005050066
 20
111.8873872861
 11
164.5005050066
 21
116.487387286
  0
LINE
  5
4DA
100
AcDbEntity
  8
0
100
AcDbLine
 62
7
  6
CONTINUOUS
 10
164.5005050066
 20
139.287387286
 11
164.5005050066
 21
143.8873872859
  0
LINE
  5
4DB
100
AcDbEntity
  8
0
100
AcDbLine
 62
7
  6
CONTINUOUS
 10
164.5005050066
 20
163.8156238729
 11
164.5005050066
 21
165.815623873
  0
LINE
  5
4DC
100
AcDbEntity
  8
0
100
AcDbLine
 62
7
  6
CONTINUOUS
 10
164.6005050066
 20
143.887387286
 11
164.6005050066
 21
139.387387286
  0
LINE
  5
4DD
100
AcDbEntity
  8
0
100
AcDbLine
 62
7
  6
CONTINUOUS
 10
164.6005050066
 20
116.387387286
 11
164.6005050066
 21
111.887387286
  0
LINE
  5
4DE
100
AcDbEntity
  8
0
100
AcDbLine
 62
7
  6
CONTINUOUS
 10
164.6005050066
 20
95.8370540725
 11
164.6005050066
 21
93.8370540725
  0
LINE
  5
4DF
100
AcDbEntity
  8
0
100
AcDbLine
 62
7
  6
CONTINUOUS
 10
164.6005050066
 20
163.815623873
 11
164.6005050066
 21
165.815623873
  0
LINE
  5
4E0
100
AcDbEntity
  8
0
100
AcDbLine
 62
7
  6
CONTINUOUS
 10
165.0038321685
 20
36.7680671652
 11
165.0038321685
 21
66.5680671643
  0
LINE
  5
4E1
100
AcDbEntity
  8
0
100
AcDbLine
 62
7
  6
CONTINUOUS
 10
165.4005050066
 20
93.8370540725
 11
165.4005050066
 21
95.8370540725
  0
LINE
  5
4E2
100
AcDbEntity
  8
0
100
AcDbLine
 62
7
  6
CONTINUOUS
 10
165.4005050066
 20
111.887387286
 11
165.4005050066
 21
116.387387286
  0
LINE
  5
4E3
100
AcDbEntity
  8
0
100
AcDbLine
 62
7
  6
CONTINUOUS
 10
165.4005050066
 20
139.387387286
 11
165.4005050066
 21
143.887387286
  0
LINE
  5
4E4
100
AcDbEntity
  8
0
100
AcDbLine
 62
7
  6
CONTINUOUS
 10
165.4005050066
 20
163.815623873
 11
165.4005050066
 21
165.815623873
  0
LINE
  5
4E5
100
AcDbEntity
  8
0
100
AcDbLine
 62
7
  6
CONTINUOUS
 10
165.5005050066
 20
143.8873872859
 11
165.5005050066
 21
139.287387286
  0
LINE
  5
4E6
100
AcDbEntity
  8
0
100
AcDbLine
 62
7
  6
CONTINUOUS
 10
165.5005050066
 20
95.8370540726
 11
165.5005050066
 21
93.8370540725
  0
LINE
  5
4E7
100
AcDbEntity
  8
0
100
AcDbLine
 62
7
  6
CONTINUOUS
 10
165.5005050066
 20
111.887387286
 11
165.5005050066
 21
116.487387286
  0
LINE
  5
4E8
100
AcDbEntity
  8
0
100
AcDbLine
 62
7
  6
CONTINUOUS
 10
165.5005050066
 20
163.8156238729
 11
165.5005050066
 21
165.815623873
  0
LINE
  5
4E9
100
AcDbEntity
  8
0
100
AcDbLine
 62
7
  6
CONTINUOUS
 10
166.0005050066
 20
142.4424619351
 11
166.0005050066
 21
141.8774917488
  0
LINE
  5
4EA
100
AcDbEntity
  8
0
100
AcDbLine
 62
7
  6
CONTINUOUS
 10
166.0005050066
 20
140.0098283627
 11
166.0005050066
 21
139.4448581764
  0
LINE
  5
4EB
100
AcDbEntity
  8
0
100
AcDbLine
 62
7
  6
CONTINUOUS
 10
166.0005050066
 20
113.3343083694
 11
166.0005050066
 21
113.8992785556
  0
LINE
  5
4EC
100
AcDbEntity
  8
0
100
AcDbLine
 62
7
  6
CONTINUOUS
 10
166.0005050066
 20
115.7669419418
 11
166.0005050066
 21
116.331912128
  0
LINE
  5
4ED
100
AcDbEntity
  8
0
100
AcDbLine
 62
7
  6
CONTINUOUS
 10
155.7317550066
 20
92.7423732134
 11
155.7942547682
 21
92.8381179052
  0
LINE
  5
4EE
100
AcDbEntity
  8
0
100
AcDbLine
 62
7
  6
CONTINUOUS
 10
155.9192550066
 20
92.7423732134
 11
155.8255050066
 21
92.6147136429
  0
LINE
  5
4EF
100
AcDbEntity
  8
0
100
AcDbLine
 62
7
  6
CONTINUOUS
 10
206.383031074
 20
143.2873872857
 11
206.9830310741
 21
143.8873872858
  0
LINE
  5
4F0
100
AcDbEntity
  8
0
100
AcDbLine
 62
7
  6
CONTINUOUS
 10
182.1005050066
 20
119.5335322355
 11
180.7480134064
 21
118.1843250315
  0
LINE
  5
4F1
100
AcDbEntity
  8
0
100
AcDbLine
 62
7
  6
CONTINUOUS
 10
179.5480134068
 20
116.9843250319
 11
178.1349603341
 21
115.5747034231
  0
LINE
  5
4F2
100
AcDbEntity
  8
0
100
AcDbLine
 62
7
  6
CONTINUOUS
 10
176.937752105
 20
114.3774407465
 11
175.5452961969
 21
112.9883851522
  0
LINE
  5
4F3
100
AcDbEntity
  8
0
100
AcDbLine
 62
7
  6
CONTINUOUS
 10
181.0304976649
 20
117.9011531178
 11
182.1005050066
 21
118.9685620492
  0
LINE
  5
4F4
100
AcDbEntity
  8
0
100
AcDbLine
 62
7
  6
CONTINUOUS
 10
178.4194663633
 20
115.2935483705
 11
179.8304976649
 21
116.7011531178
  0
LINE
  5
4F5
100
AcDbEntity
  8
0
100
AcDbLine
 62
7
  6
CONTINUOUS
 10
176.1116416989
 20
112.9883851522
 11
177.2174589922
 21
114.0915170743
  0
LINE
  5
4F6
100
AcDbEntity
  8
0
100
AcDbLine
 62
7
  6
CONTINUOUS
 10
155.2005048874
 20
93.2530115174
 11
155.0755050066
 21
93.157266848
  0
LINE
  5
4F7
100
AcDbEntity
  8
0
100
AcDbLine
 62
7
  6
CONTINUOUS
 10
155.6380050066
 20
92.6785434337
 11
155.7317550066
 21
92.7423732134
  0
LINE
  5
4F8
100
AcDbEntity
  8
0
100
AcDbLine
 62
7
  6
CONTINUOUS
 10
155.0130048874
 20
93.316841297
 11
155.1692550066
 21
93.4125859665
  0
LINE
  5
4F9
100
AcDbEntity
  8
0
100
AcDbLine
 62
7
  6
CONTINUOUS
 10
155.8255050066
 20
92.6147136429
 11
155.669255245
 21
92.5189689651
  0
LINE
  5
4FA
100
AcDbEntity
  8
0
100
AcDbLine
 62
7
  6
CONTINUOUS
 10
61.9912041416
 20
120.237387286
 11
61.8912041416
 21
120.237387286
  0
LINE
  5
4FB
100
AcDbEntity
  8
0
100
AcDbLine
 62
7
  6
CONTINUOUS
 10
61.8912041416
 20
120.787387286
 11
59.4912041416
 21
120.787387286
  0
LINE
  5
4FC
100
AcDbEntity
  8
0
100
AcDbLine
 62
7
  6
CONTINUOUS
 10
61.9912041416
 20
120.787387286
 11
62.9912041416
 21
120.787387286
  0
LINE
  5
4FD
100
AcDbEntity
  8
0
100
AcDbLine
 62
7
  6
CONTINUOUS
 10
95.6005050066
 20
120.937387286
 11
86.0005050066
 21
120.937387286
  0
LINE
  5
4FE
100
AcDbEntity
  8
0
100
AcDbLine
 62
7
  6
CONTINUOUS
 10
62.9912041416
 20
120.937387286
 11
59.4912041416
 21
120.937387286
  0
LINE
  5
4FF
100
AcDbEntity
  8
0
100
AcDbLine
 62
7
  6
CONTINUOUS
 10
60.6736095882
 20
121.0914346044
 11
59.4912041416
 21
121.0914346044
  0
LINE
  5
500
100
AcDbEntity
  8
0
100
AcDbLine
 62
7
  6
CONTINUOUS
 10
61.0346036907
 20
121.137387286
 11
62.9912041416
 21
121.137387286
  0
LINE
  5
501
100
AcDbEntity
  8
0
100
AcDbLine
 62
7
  6
CONTINUOUS
 10
59.4912041416
 20
121.1914346044
 11
60.5992793537
 21
121.1914346044
  0
LINE
  5
502
100
AcDbEntity
  8
0
100
AcDbLine
 62
7
  6
CONTINUOUS
 10
61.0346036907
 20
121.237387286
 11
62.9912041416
 21
121.237387286
  0
LINE
  5
503
100
AcDbEntity
  8
0
100
AcDbLine
 62
7
  6
CONTINUOUS
 10
58.9412041416
 20
121.387387286
 11
58.8912041416
 21
121.387387286
  0
LINE
  5
504
100
AcDbEntity
  8
0
100
AcDbLine
 62
7
  6
CONTINUOUS
 10
61.9912041416
 20
121.637387286
 11
61.2912041416
 21
121.637387286
  0
LINE
  5
505
100
AcDbEntity
  8
0
100
AcDbLine
 62
7
  6
CONTINUOUS
 10
62.8412041416
 20
123.137387286
 11
62.3412041416
 21
123.137387286
  0
LINE
  5
506
100
AcDbEntity
  8
0
100
AcDbLine
 62
7
  6
CONTINUOUS
 10
60.2912041416
 20
123.637387286
 11
59.7912041416
 21
123.637387286
  0
LINE
  5
507
100
AcDbEntity
  8
0
100
AcDbLine
 62
7
  6
CONTINUOUS
 10
62.3412041416
 20
123.637387286
 11
62.8412041416
 21
123.637387286
  0
LINE
  5
508
100
AcDbEntity
  8
0
100
AcDbLine
 62
7
  6
CONTINUOUS
 10
62.8412041416
 20
124.137387286
 11
62.3412041416
 21
124.137387286
  0
LINE
  5
509
100
AcDbEntity
  8
0
100
AcDbLine
 62
7
  6
CONTINUOUS
 10
59.7912041416
 20
124.137387286
 11
60.2912041416
 21
124.137387286
  0
LINE
  5
50A
100
AcDbEntity
  8
0
100
AcDbLine
 62
7
  6
CONTINUOUS
 10
60.2912041416
 20
124.637387286
 11
59.7912041416
 21
124.637387286
  0
LINE
  5
50B
100
AcDbEntity
  8
0
100
AcDbLine
 62
7
  6
CONTINUOUS
 10
62.3412041416
 20
124.637387286
 11
62.8412041416
 21
124.637387286
  0
LINE
  5
50C
100
AcDbEntity
  8
0
100
AcDbLine
 62
7
  6
CONTINUOUS
 10
62.8412041416
 20
125.137387286
 11
62.3412041416
 21
125.137387286
  0
LINE
  5
50D
100
AcDbEntity
  8
0
100
AcDbLine
 62
7
  6
CONTINUOUS
 10
59.7912041416
 20
125.137387286
 11
60.2912041416
 21
125.137387286
  0
LINE
  5
50E
100
AcDbEntity
  8
0
100
AcDbLine
 62
7
  6
CONTINUOUS
 10
60.2912041416
 20
125.637387286
 11
59.7912041416
 21
125.637387286
  0
LINE
  5
50F
100
AcDbEntity
  8
0
100
AcDbLine
 62
7
  6
CONTINUOUS
 10
62.3412041416
 20
125.637387286
 11
62.8412041416
 21
125.637387286
  0
LINE
  5
510
100
AcDbEntity
  8
0
100
AcDbLine
 62
7
  6
CONTINUOUS
 10
62.8412041416
 20
126.137387286
 11
62.3412041416
 21
126.137387286
  0
LINE
  5
511
100
AcDbEntity
  8
0
100
AcDbLine
 62
7
  6
CONTINUOUS
 10
59.7912041416
 20
126.137387286
 11
60.2912041416
 21
126.137387286
  0
LINE
  5
512
100
AcDbEntity
  8
0
100
AcDbLine
 62
7
  6
CONTINUOUS
 10
60.2912041416
 20
126.637387286
 11
59.7912041416
 21
126.637387286
  0
LINE
  5
513
100
AcDbEntity
  8
0
100
AcDbLine
 62
7
  6
CONTINUOUS
 10
62.3412041416
 20
126.637387286
 11
62.8412041416
 21
126.637387286
  0
LINE
  5
514
100
AcDbEntity
  8
0
100
AcDbLine
 62
7
  6
CONTINUOUS
 10
167.6770583384
 20
114.0915170743
 11
168.7828756317
 21
112.9883851522
  0
LINE
  5
515
100
AcDbEntity
  8
0
100
AcDbLine
 62
7
  6
CONTINUOUS
 10
166.0005050066
 20
115.7669419418
 11
166.4790945096
 21
115.2895146474
  0
LINE
  5
516
100
AcDbEntity
  8
0
100
AcDbLine
 62
7
  6
CONTINUOUS
 10
169.3492211337
 20
112.9883851522
 11
167.9567200214
 21
114.3774921553
  0
LINE
  5
517
100
AcDbEntity
  8
0
100
AcDbLine
 62
7
  6
CONTINUOUS
 10
166.7595569964
 20
115.5747034232
 11
166.0005050066
 21
116.331912128
  0
LINE
  5
518
100
AcDbEntity
  8
0
100
AcDbLine
 62
7
  6
CONTINUOUS
 10
182.6005050061
 20
95.837054073
 11
183.2005050063
 21
95.2370540728
  0
LINE
  5
519
100
AcDbEntity
  8
0
100
AcDbLine
 62
7
  6
CONTINUOUS
 10
212.9330310743
 20
112.1929428415
 11
212.8330310758
 21
112.1373872868
  0
LINE
  5
51A
100
AcDbEntity
  8
0
100
AcDbLine
 62
7
  6
CONTINUOUS
 10
62.8412041416
 20
127.137387286
 11
62.3412041416
 21
127.137387286
  0
LINE
  5
51B
100
AcDbEntity
  8
0
100
AcDbLine
 62
7
  6
CONTINUOUS
 10
59.7912041416
 20
127.137387286
 11
60.2912041416
 21
127.137387286
  0
LINE
  5
51C
100
AcDbEntity
  8
0
100
AcDbLine
 62
7
  6
CONTINUOUS
 10
60.2912041416
 20
127.637387286
 11
59.7912041416
 21
127.637387286
  0
LINE
  5
51D
100
AcDbEntity
  8
0
100
AcDbLine
 62
7
  6
CONTINUOUS
 10
62.3412041416
 20
127.637387286
 11
62.8412041416
 21
127.637387286
  0
LINE
  5
51E
100
AcDbEntity
  8
0
100
AcDbLine
 62
7
  6
CONTINUOUS
 10
59.9912041416
 20
127.812387286
 11
59.7912041416
 21
127.812387286
  0
LINE
  5
51F
100
AcDbEntity
  8
0
100
AcDbLine
 62
7
  6
CONTINUOUS
 10
59.2912041416
 20
127.812387286
 11
58.9912041416
 21
127.812387286
  0
LINE
  5
520
100
AcDbEntity
  8
0
100
AcDbLine
 62
7
  6
CONTINUOUS
 10
59.9912041416
 20
127.962387286
 11
59.7912041416
 21
127.962387286
  0
LINE
  5
521
100
AcDbEntity
  8
0
100
AcDbLine
 62
7
  6
CONTINUOUS
 10
59.2912041416
 20
127.962387286
 11
58.9912041416
 21
127.962387286
  0
LINE
  5
522
100
AcDbEntity
  8
0
100
AcDbLine
 62
7
  6
CONTINUOUS
 10
62.8412041416
 20
128.137387286
 11
62.3412041416
 21
128.137387286
  0
LINE
  5
523
100
AcDbEntity
  8
0
100
AcDbLine
 62
7
  6
CONTINUOUS
 10
59.7912041416
 20
128.137387286
 11
60.2912041416
 21
128.137387286
  0
LINE
  5
524
100
AcDbEntity
  8
0
100
AcDbLine
 62
7
  6
CONTINUOUS
 10
60.2912041416
 20
128.637387286
 11
59.7912041416
 21
128.637387286
  0
LINE
  5
525
100
AcDbEntity
  8
0
100
AcDbLine
 62
7
  6
CONTINUOUS
 10
62.3412041416
 20
128.637387286
 11
62.8412041416
 21
128.637387286
  0
LINE
  5
526
100
AcDbEntity
  8
0
100
AcDbLine
 62
7
  6
CONTINUOUS
 10
62.8412041416
 20
129.137387286
 11
62.3412041416
 21
129.137387286
  0
LINE
  5
527
100
AcDbEntity
  8
0
100
AcDbLine
 62
7
  6
CONTINUOUS
 10
59.7912041416
 20
129.137387286
 11
60.2912041416
 21
129.137387286
  0
LINE
  5
528
100
AcDbEntity
  8
0
100
AcDbLine
 62
7
  6
CONTINUOUS
 10
60.2912041416
 20
129.637387286
 11
59.7912041416
 21
129.637387286
  0
LINE
  5
529
100
AcDbEntity
  8
0
100
AcDbLine
 62
7
  6
CONTINUOUS
 10
62.3412041416
 20
129.637387286
 11
62.8412041416
 21
129.637387286
  0
LINE
  5
52A
100
AcDbEntity
  8
0
100
AcDbLine
 62
7
  6
CONTINUOUS
 10
62.8412041416
 20
130.137387286
 11
62.3412041416
 21
130.137387286
  0
LINE
  5
52B
100
AcDbEntity
  8
0
100
AcDbLine
 62
7
  6
CONTINUOUS
 10
59.7912041416
 20
130.137387286
 11
60.2912041416
 21
130.137387286
  0
LINE
  5
52C
100
AcDbEntity
  8
0
100
AcDbLine
 62
7
  6
CONTINUOUS
 10
60.2912041416
 20
130.637387286
 11
59.7912041416
 21
130.637387286
  0
LINE
  5
52D
100
AcDbEntity
  8
0
100
AcDbLine
 62
7
  6
CONTINUOUS
 10
62.3412041416
 20
130.637387286
 11
62.8412041416
 21
130.637387286
  0
LINE
  5
52E
100
AcDbEntity
  8
0
100
AcDbLine
 62
7
  6
CONTINUOUS
 10
62.8412041416
 20
131.137387286
 11
62.3412041416
 21
131.137387286
  0
LINE
  5
52F
100
AcDbEntity
  8
0
100
AcDbLine
 62
7
  6
CONTINUOUS
 10
59.7912041416
 20
131.137387286
 11
60.2912041416
 21
131.137387286
  0
LINE
  5
530
100
AcDbEntity
  8
0
100
AcDbLine
 62
7
  6
CONTINUOUS
 10
60.2912041416
 20
131.637387286
 11
59.7912041416
 21
131.637387286
  0
LINE
  5
531
100
AcDbEntity
  8
0
100
AcDbLine
 62
7
  6
CONTINUOUS
 10
62.3412041416
 20
131.637387286
 11
62.8412041416
 21
131.637387286
  0
LINE
  5
532
100
AcDbEntity
  8
0
100
AcDbLine
 62
7
  6
CONTINUOUS
 10
62.8412041416
 20
132.137387286
 11
62.3412041416
 21
132.137387286
  0
LINE
  5
533
100
AcDbEntity
  8
0
100
AcDbLine
 62
7
  6
CONTINUOUS
 10
59.7912041416
 20
132.137387286
 11
60.2912041416
 21
132.137387286
  0
LINE
  5
534
100
AcDbEntity
  8
0
100
AcDbLine
 62
7
  6
CONTINUOUS
 10
62.3412041416
 20
132.637387286
 11
62.8412041416
 21
132.637387286
  0
LINE
  5
535
100
AcDbEntity
  8
0
100
AcDbLine
 62
7
  6
CONTINUOUS
 10
63.4912041416
 20
132.687387286
 11
63.5412041416
 21
132.687387286
  0
LINE
  5
536
100
AcDbEntity
  8
0
100
AcDbLine
 62
7
  6
CONTINUOUS
 10
58.9912041416
 20
133.587387286
 11
58.9412041416
 21
133.587387286
  0
LINE
  5
537
100
AcDbEntity
  8
0
100
AcDbLine
 62
7
  6
CONTINUOUS
 10
61.2912041416
 20
134.137387286
 11
61.9912041416
 21
134.137387286
  0
LINE
  5
538
100
AcDbEntity
  8
0
100
AcDbLine
 62
7
  6
CONTINUOUS
 10
58.8912041416
 20
134.387387286
 11
58.9937132758
 21
134.387387286
  0
LINE
  5
539
100
AcDbEntity
  8
0
100
AcDbLine
 62
7
  6
CONTINUOUS
 10
62.9912041416
 20
134.537387286
 11
61.0346036907
 21
134.537387286
  0
LINE
  5
53A
100
AcDbEntity
  8
0
100
AcDbLine
 62
7
  6
CONTINUOUS
 10
59.4912041416
 20
134.5833399676
 11
60.5992793537
 21
134.5833399676
  0
LINE
  5
53B
100
AcDbEntity
  8
0
100
AcDbLine
 62
7
  6
CONTINUOUS
 10
62.9912041416
 20
134.637387286
 11
61.0346036907
 21
134.637387286
  0
LINE
  5
53C
100
AcDbEntity
  8
0
100
AcDbLine
 62
7
  6
CONTINUOUS
 10
60.6736095882
 20
134.6833399676
 11
59.4912041416
 21
134.6833399676
  0
LINE
  5
53D
100
AcDbEntity
  8
0
100
AcDbLine
 62
7
  6
CONTINUOUS
 10
59.4912041416
 20
134.837387286
 11
62.9912041416
 21
134.837387286
  0
LINE
  5
53E
100
AcDbEntity
  8
0
100
AcDbLine
 62
7
  6
CONTINUOUS
 10
86.0005050066
 20
134.837387286
 11
95.6005050066
 21
134.837387286
  0
LINE
  5
53F
100
AcDbEntity
  8
0
100
AcDbLine
 62
7
  6
CONTINUOUS
 10
61.8912041416
 20
134.987387286
 11
59.4912041416
 21
134.987387286
  0
LINE
  5
540
100
AcDbEntity
  8
0
100
AcDbLine
 62
7
  6
CONTINUOUS
 10
61.9912041416
 20
134.987387286
 11
62.9912041416
 21
134.987387286
  0
LINE
  5
541
100
AcDbEntity
  8
0
100
AcDbLine
 62
7
  6
CONTINUOUS
 10
61.8912041416
 20
135.537387286
 11
61.9912041416
 21
135.537387286
  0
LINE
  5
542
100
AcDbEntity
  8
0
100
AcDbLine
 62
7
  6
CONTINUOUS
 10
172.9060093364
 20
114.0915170741
 11
174.0118266296
 21
112.9883851522
  0
LINE
  5
543
100
AcDbEntity
  8
0
100
AcDbLine
 62
7
  6
CONTINUOUS
 10
170.2901114108
 20
116.7040054272
 11
171.7040019648
 21
115.2935483708
  0
LINE
  5
544
100
AcDbEntity
  8
0
100
AcDbLine
 62
7
  6
CONTINUOUS
 10
167.6770583384
 20
119.3136270357
 11
169.0901114108
 21
117.9040054272
  0
LINE
  5
545
100
AcDbEntity
  8
0
100
AcDbLine
 62
7
  6
CONTINUOUS
 10
165.0611604129
 20
121.9261153886
 11
166.4750509668
 21
120.5156583324
  0
LINE
  5
546
100
AcDbEntity
  8
0
100
AcDbLine
 62
7
  6
CONTINUOUS
 10
174.5781721316
 20
112.9883851522
 11
173.1905153658
 21
114.3726721266
  0
LINE
  5
547
100
AcDbEntity
  8
0
100
AcDbLine
 62
7
  6
CONTINUOUS
 10
171.9885079943
 20
115.5747034232
 11
170.572595669
 21
116.9871773412
  0
LINE
  5
548
100
AcDbEntity
  8
0
100
AcDbLine
 62
7
  6
CONTINUOUS
 10
169.3725956689
 20
118.1871773412
 11
167.961564368
 21
119.5947820879
  0
LINE
  5
549
100
AcDbEntity
  8
0
100
AcDbLine
 62
7
  6
CONTINUOUS
 10
166.7595569964
 20
120.7968133845
 11
165.3465039241
 21
122.206434993
  0
LINE
  5
54A
100
AcDbEntity
  8
0
100
AcDbLine
 62
7
  6
CONTINUOUS
 10
178.1349603341
 20
114.0915170743
 11
179.1716577308
 21
113.0573371979
  0
LINE
  5
54B
100
AcDbEntity
  8
0
100
AcDbLine
 62
7
  6
CONTINUOUS
 10
175.5219216616
 20
116.7011531177
 11
176.9329529625
 21
115.293548371
  0
LINE
  5
54C
100
AcDbEntity
  8
0
100
AcDbLine
 62
7
  6
CONTINUOUS
 10
172.9060093363
 20
119.3136270357
 11
174.3219216617
 21
117.9011531176
  0
LINE
  5
54D
100
AcDbEntity
  8
0
100
AcDbLine
 62
7
  6
CONTINUOUS
 10
170.2901114108
 20
121.9261153886
 11
171.7040019647
 21
120.5156583323
  0
LINE
  5
54E
100
AcDbEntity
  8
0
100
AcDbLine
 62
7
  6
CONTINUOUS
 10
167.6770583384
 20
124.5357369971
 11
169.0929706637
 21
123.1232630791
  0
LINE
  5
54F
100
AcDbEntity
  8
0
100
AcDbLine
 62
7
  6
CONTINUOUS
 10
165.064019666
 20
127.1453730403
 11
166.4750509666
 21
125.737768294
  0
LINE
  5
550
100
AcDbEntity
  8
0
100
AcDbLine
 62
7
  6
CONTINUOUS
 10
179.5921525473
 20
113.2028336989
 11
178.4146220173
 21
114.3774921553
  0
LINE
  5
551
100
AcDbEntity
  8
0
100
AcDbLine
 62
7
  6
CONTINUOUS
 10
177.2174589923
 20
115.5747034231
 11
175.8044059198
 21
116.9843250317
  0
LINE
  5
552
100
AcDbEntity
  8
0
100
AcDbLine
 62
7
  6
CONTINUOUS
 10
174.6044059198
 20
118.1843250317
 11
173.1856710193
 21
119.5996021167
  0
LINE
  5
553
100
AcDbEntity
  8
0
100
AcDbLine
 62
7
  6
CONTINUOUS
 10
171.9885079943
 20
120.7968133846
 11
170.5754549219
 21
122.206434993
  0
LINE
  5
554
100
AcDbEntity
  8
0
100
AcDbLine
 62
7
  6
CONTINUOUS
 10
169.375454922
 20
123.4064349929
 11
167.9615643677
 21
124.8168920496
  0
LINE
  5
555
100
AcDbEntity
  8
0
100
AcDbLine
 62
7
  6
CONTINUOUS
 10
166.7595569964
 20
126.018923346
 11
165.346503924
 21
127.4285449544
  0
LINE
  5
556
100
AcDbEntity
  8
0
100
AcDbLine
 62
7
  6
CONTINUOUS
 10
180.7508726598
 20
116.7011531173
 11
182.1005050066
 21
115.3547982233
  0
LINE
  5
557
100
AcDbEntity
  8
0
100
AcDbLine
 62
7
  6
CONTINUOUS
 10
178.134960334
 20
119.3136270358
 11
179.5480134069
 21
117.9040054268
  0
LINE
  5
558
100
AcDbEntity
  8
0
100
AcDbLine
 62
7
  6
CONTINUOUS
 10
175.5219216615
 20
121.9232630792
 11
176.9329529626
 21
120.5156583323
  0
LINE
  5
559
100
AcDbEntity
  8
0
100
AcDbLine
 62
7
  6
CONTINUOUS
 10
172.9060093363
 20
124.535736997
 11
174.3219216616
 21
123.123263079
  0
LINE
  5
55A
100
AcDbEntity
  8
0
100
AcDbLine
 62
7
  6
CONTINUOUS
 10
170.2901114108
 20
127.14822535
 11
171.7040019646
 21
125.7377682938
  0
LINE
  5
55B
100
AcDbEntity
  8
0
100
AcDbLine
 62
7
  6
CONTINUOUS
 10
167.6770583385
 20
129.7578469583
 11
169.0929706637
 21
128.3453730405
  0
LINE
  5
55C
100
AcDbEntity
  8
0
100
AcDbLine
 62
7
  6
CONTINUOUS
 10
165.0640196659
 20
132.3674830018
 11
166.4750509668
 21
130.9598782552
  0
LINE
  5
55D
100
AcDbEntity
  8
0
100
AcDbLine
 62
7
  6
CONTINUOUS
 10
182.1005050066
 20
115.9197684096
 11
181.0333569175
 21
116.9843250318
  0
LINE
  5
55E
100
AcDbEntity
  8
0
100
AcDbLine
 62
7
  6
CONTINUOUS
 10
179.8304976645
 20
118.1871773414
 11
178.4194663638
 21
119.5947820879
  0
LINE
  5
55F
100
AcDbEntity
  8
0
100
AcDbLine
 62
7
  6
CONTINUOUS
 10
177.2174589923
 20
120.7968133844
 11
175.8044059197
 21
122.2064349931
  0
LINE
  5
560
100
AcDbEntity
  8
0
100
AcDbLine
 62
7
  6
CONTINUOUS
 10
174.6044059197
 20
123.4064349931
 11
173.1905153659
 21
124.8168920493
  0
LINE
  5
561
100
AcDbEntity
  8
0
100
AcDbLine
 62
7
  6
CONTINUOUS
 10
171.9885079943
 20
126.018923346
 11
170.572595669
 21
127.431397264
  0
LINE
  5
562
100
AcDbEntity
  8
0
100
AcDbLine
 62
7
  6
CONTINUOUS
 10
169.3754549219
 20
128.6285449545
 11
167.9575208251
 21
130.0430357343
  0
LINE
  5
563
100
AcDbEntity
  8
0
100
AcDbLine
 62
7
  6
CONTINUOUS
 10
166.760197503
 20
131.2403943562
 11
165.3436446711
 21
132.6535072254
  0
LINE
  5
564
100
AcDbEntity
  8
0
100
AcDbLine
 62
7
  6
CONTINUOUS
 10
182.1005050066
 20
126.3639883324
 11
182.1005050066
 21
125.7990181462
  0
LINE
  5
565
100
AcDbEntity
  8
0
100
AcDbLine
 62
7
  6
CONTINUOUS
 10
182.1005050066
 20
124.7556421969
 11
182.1005050066
 21
124.1906720106
  0
LINE
  5
566
100
AcDbEntity
  8
0
100
AcDbLine
 62
7
  6
CONTINUOUS
 10
182.1005050066
 20
121.141878371
 11
182.1005050066
 21
120.5769081848
  0
LINE
  5
567
100
AcDbEntity
  8
0
100
AcDbLine
 62
7
  6
CONTINUOUS
 10
182.1005050066
 20
119.5335322355
 11
182.1005050066
 21
118.9685620492
  0
LINE
  5
568
100
AcDbEntity
  8
0
100
AcDbLine
 62
7
  6
CONTINUOUS
 10
182.1005050066
 20
115.9197684096
 11
182.1005050066
 21
115.3547982233
  0
LINE
  5
569
100
AcDbEntity
  8
0
100
AcDbLine
 62
7
  6
CONTINUOUS
 10
182.1005050066
 20
64.2016540937
 11
182.1005050066
 21
39.1344802359
  0
LINE
  5
56A
100
AcDbEntity
  8
0
100
AcDbLine
 62
7
  6
CONTINUOUS
 10
182.1005050066
 20
129.412781972
 11
182.1005050066
 21
129.9777521583
  0
LINE
  5
56B
100
AcDbEntity
  8
0
100
AcDbLine
 62
7
  6
CONTINUOUS
 10
182.1005050066
 20
131.0211281076
 11
182.1005050066
 21
131.5860982938
  0
LINE
  5
56C
100
AcDbEntity
  8
0
100
AcDbLine
 62
7
  6
CONTINUOUS
 10
182.1005050066
 20
134.6348919334
 11
182.1005050066
 21
135.1998621197
  0
LINE
  5
56D
100
AcDbEntity
  8
0
100
AcDbLine
 62
7
  6
CONTINUOUS
 10
182.1005050066
 20
136.243238069
 11
182.1005050066
 21
136.8082082552
  0
LINE
  5
56E
100
AcDbEntity
  8
0
100
AcDbLine
 62
7
  6
CONTINUOUS
 10
182.1005050066
 20
139.8570018948
 11
182.1005050066
 21
140.4219720811
  0
LINE
  5
56F
100
AcDbEntity
  8
0
100
AcDbLine
 62
7
  6
CONTINUOUS
 10
182.6005050061
 20
39.1680671736
 11
182.6005050061
 21
64.1680671621
  0
LINE
  5
570
100
AcDbEntity
  8
0
100
AcDbLine
 62
7
  6
CONTINUOUS
 10
182.6005050061
 20
115.3873872886
 11
182.6005050061
 21
140.3873872771
  0
LINE
  5
571
100
AcDbEntity
  8
0
100
AcDbLine
 62
7
  6
CONTINUOUS
 10
182.7005050066
 20
172.465623873
 11
182.7005050066
 21
171.265623873
  0
LINE
  5
572
100
AcDbEntity
  8
0
100
AcDbLine
 62
7
  6
CONTINUOUS
 10
182.7005050066
 20
169.365623873
 11
182.7005050066
 21
168.165623873
  0
LINE
  5
573
100
AcDbEntity
  8
0
100
AcDbLine
 62
7
  6
CONTINUOUS
 10
182.7005050066
 20
91.4870540725
 11
182.7005050066
 21
90.2870540725
  0
LINE
  5
574
100
AcDbEntity
  8
0
100
AcDbLine
 62
7
  6
CONTINUOUS
 10
182.7005050066
 20
88.3870540725
 11
182.7005050066
 21
87.1870540725
  0
LINE
  5
575
100
AcDbEntity
  8
0
100
AcDbLine
 62
7
  6
CONTINUOUS
 10
183.2005050066
 20
175.2156238734
 11
183.2005050066
 21
172.465623873
  0
LINE
  5
576
100
AcDbEntity
  8
0
100
AcDbLine
 62
7
  6
CONTINUOUS
 10
183.2005050066
 20
171.265623873
 11
183.2005050066
 21
170.365623873
  0
LINE
  5
577
100
AcDbEntity
  8
0
100
AcDbLine
 62
7
  6
CONTINUOUS
 10
183.2005050066
 20
170.265623873
 11
183.2005050066
 21
169.365623873
  0
LINE
  5
578
100
AcDbEntity
  8
0
100
AcDbLine
 62
7
  6
CONTINUOUS
 10
183.2005050066
 20
168.165623873
 11
183.2005050066
 21
164.4156238726
  0
LINE
  5
579
100
AcDbEntity
  8
0
100
AcDbLine
 62
7
  6
CONTINUOUS
 10
183.2005050066
 20
95.2370540729
 11
183.2005050066
 21
91.4870540725
  0
LINE
  5
57A
100
AcDbEntity
  8
0
100
AcDbLine
 62
7
  6
CONTINUOUS
 10
183.2005050066
 20
90.2870540725
 11
183.2005050066
 21
89.3870540725
  0
LINE
  5
57B
100
AcDbEntity
  8
0
100
AcDbLine
 62
7
  6
CONTINUOUS
 10
183.2005050066
 20
89.2870540725
 11
183.2005050066
 21
88.3870540725
  0
LINE
  5
57C
100
AcDbEntity
  8
0
100
AcDbLine
 62
7
  6
CONTINUOUS
 10
183.2005050066
 20
87.1870540725
 11
183.2005050066
 21
84.4370540721
  0
LINE
  5
57D
100
AcDbEntity
  8
0
100
AcDbLine
 62
7
  6
CONTINUOUS
 10
183.2005050066
 20
39.1680671712
 11
183.2005050066
 21
64.1680671617
  0
LINE
  5
57E
100
AcDbEntity
  8
0
100
AcDbLine
 62
7
  6
CONTINUOUS
 10
183.2005050066
 20
115.387387289
 11
183.2005050066
 21
140.3873872796
  0
LINE
  5
57F
100
AcDbEntity
  8
0
100
AcDbLine
 62
7
  6
CONTINUOUS
 10
182.9505050051
 20
89.3870540699
 11
182.894949451
 21
89.2870540725
  0
LINE
  5
580
100
AcDbEntity
  8
0
100
AcDbLine
 62
7
  6
CONTINUOUS
 10
183.2005050063
 20
84.4370540722
 11
182.6005050061
 21
83.8370540721
  0
LINE
  5
581
100
AcDbEntity
  8
0
100
AcDbLine
 62
7
  6
CONTINUOUS
 10
164.5005050066
 20
139.287387286
 11
165.5005050066
 21
139.287387286
  0
LINE
  5
582
100
AcDbEntity
  8
0
100
AcDbLine
 62
7
  6
CONTINUOUS
 10
164.6005050066
 20
139.387387286
 11
165.4005050066
 21
139.387387286
  0
LINE
  5
583
100
AcDbEntity
  8
0
100
AcDbLine
 62
7
  6
CONTINUOUS
 10
164.5005050066
 20
142.287387286
 11
164.6005050066
 21
142.287387286
  0
LINE
  5
584
100
AcDbEntity
  8
0
100
AcDbLine
 62
7
  6
CONTINUOUS
 10
165.4005050066
 20
142.287387286
 11
165.5005050066
 21
142.287387286
  0
LINE
  5
585
100
AcDbEntity
  8
0
100
AcDbLine
 62
7
  6
CONTINUOUS
 10
164.5005050066
 20
142.387387286
 11
164.6005050066
 21
142.387387286
  0
LINE
  5
586
100
AcDbEntity
  8
0
100
AcDbLine
 62
7
  6
CONTINUOUS
 10
165.4005050066
 20
142.387387286
 11
165.5005050066
 21
142.387387286
  0
LINE
  5
587
100
AcDbEntity
  8
0
100
AcDbLine
 62
7
  6
CONTINUOUS
 10
176.1116416989
 20
142.7883851522
 11
175.5452961969
 21
142.7883851522
  0
LINE
  5
588
100
AcDbEntity
  8
0
100
AcDbLine
 62
7
  6
CONTINUOUS
 10
174.5781721316
 20
142.7883851522
 11
174.0118266296
 21
142.7883851522
  0
LINE
  5
589
100
AcDbEntity
  8
0
100
AcDbLine
 62
7
  6
CONTINUOUS
 10
170.882690701
 20
142.7883851522
 11
170.316345199
 21
142.7883851522
  0
LINE
  5
58A
100
AcDbEntity
  8
0
100
AcDbLine
 62
7
  6
CONTINUOUS
 10
169.3492211337
 20
142.7883851522
 11
168.7828756317
 21
142.7883851522
  0
LINE
  5
58B
100
AcDbEntity
  8
0
100
AcDbLine
 62
7
  6
CONTINUOUS
 10
179.7005050033
 20
143.2873872857
 11
165.5005050066
 21
143.2873872857
  0
LINE
  5
58C
100
AcDbEntity
  8
0
100
AcDbLine
 62
7
  6
CONTINUOUS
 10
165.4005050066
 20
143.287387286
 11
164.6005050066
 21
143.287387286
  0
LINE
  5
58D
100
AcDbEntity
  8
0
100
AcDbLine
 62
7
  6
CONTINUOUS
 10
164.5005050066
 20
143.2873872858
 11
99.1005050162
 21
143.2873872858
  0
LINE
  5
58E
100
AcDbEntity
  8
0
100
AcDbLine
 62
7
  6
CONTINUOUS
 10
210.7330310743
 20
143.387387286
 11
211.9330310743
 21
143.387387286
  0
LINE
  5
58F
100
AcDbEntity
  8
0
100
AcDbLine
 62
7
  6
CONTINUOUS
 10
213.8330310743
 20
143.387387286
 11
215.0330310743
 21
143.387387286
  0
LINE
  5
590
100
AcDbEntity
  8
0
100
AcDbLine
 62
7
  6
CONTINUOUS
 10
57.0412041412
 20
143.887387286
 11
61.8912041416
 21
143.887387286
  0
LINE
  5
591
100
AcDbEntity
  8
0
100
AcDbLine
 62
7
  6
CONTINUOUS
 10
61.9912041416
 20
143.887387286
 11
67.8412041418
 21
143.887387286
  0
LINE
  5
592
100
AcDbEntity
  8
0
100
AcDbLine
 62
7
  6
CONTINUOUS
 10
99.100505013
 20
143.887387286
 11
179.7005050035
 21
143.887387286
  0
LINE
  5
593
100
AcDbEntity
  8
0
100
AcDbLine
 62
7
  6
CONTINUOUS
 10
206.983031074
 20
143.887387286
 11
212.8330310743
 21
143.887387286
  0
LINE
  5
594
100
AcDbEntity
  8
0
100
AcDbLine
 62
7
  6
CONTINUOUS
 10
212.9330310743
 20
143.887387286
 11
217.7830310747
 21
143.887387286
  0
LINE
  5
595
100
AcDbEntity
  8
0
100
AcDbLine
 62
7
  6
CONTINUOUS
 10
174.6044059199
 20
133.8506549158
 11
173.2143176538
 21
135.2315105161
  0
LINE
  5
596
100
AcDbEntity
  8
0
100
AcDbLine
 62
7
  6
CONTINUOUS
 10
180.7480134064
 20
121.9261153887
 11
182.1005050066
 21
120.5769081848
  0
LINE
  5
597
100
AcDbEntity
  8
0
100
AcDbLine
 62
7
  6
CONTINUOUS
 10
178.1349603341
 20
124.5357369971
 11
179.5480134067
 21
123.1261153884
  0
LINE
  5
598
100
AcDbEntity
  8
0
100
AcDbLine
 62
7
  6
CONTINUOUS
 10
175.5219216614
 20
127.1453730406
 11
176.9329529626
 21
125.7377682937
  0
LINE
  5
599
100
AcDbEntity
  8
0
100
AcDbLine
 62
7
  6
CONTINUOUS
 10
172.9053688297
 20
129.7584859096
 11
174.3190624086
 21
128.34822535
  0
LINE
  5
59A
100
AcDbEntity
  8
0
100
AcDbLine
 62
7
  6
CONTINUOUS
 10
170.2901114108
 20
132.3703353114
 11
171.7040019646
 21
130.9598782552
  0
LINE
  5
59B
100
AcDbEntity
  8
0
100
AcDbLine
 62
7
  6
CONTINUOUS
 10
167.6764178318
 20
134.9805958711
 11
169.0901114106
 21
133.5703353116
  0
LINE
  5
59C
100
AcDbEntity
  8
0
100
AcDbLine
 62
7
  6
CONTINUOUS
 10
165.0611604129
 20
137.5924452728
 11
166.4798992204
 21
136.1771715604
  0
LINE
  5
59D
100
AcDbEntity
  8
0
100
AcDbLine
 62
7
  6
CONTINUOUS
 10
182.1005050066
 20
121.141878371
 11
181.0333569175
 21
122.2064349933
  0
LINE
  5
59E
100
AcDbEntity
  8
0
100
AcDbLine
 62
7
  6
CONTINUOUS
 10
179.8333569176
 20
123.4064349932
 11
178.4194663639
 21
124.8168920492
  0
LINE
  5
59F
100
AcDbEntity
  8
0
100
AcDbLine
 62
7
  6
CONTINUOUS
 10
177.2174589922
 20
126.0189233459
 11
175.8044059199
 21
127.4285449544
  0
LINE
  5
5A0
100
AcDbEntity
  8
0
100
AcDbLine
 62
7
  6
CONTINUOUS
 10
174.6024997511
 20
128.6304464942
 11
173.1905153655
 21
130.0390020111
  0
LINE
  5
5A1
100
AcDbEntity
  8
0
100
AcDbLine
 62
7
  6
CONTINUOUS
 10
171.9891485009
 20
131.2403943562
 11
170.5754549221
 21
132.6506549157
  0
LINE
  5
5A2
100
AcDbEntity
  8
0
100
AcDbLine
 62
7
  6
CONTINUOUS
 10
169.3735487533
 20
133.8525564556
 11
167.9615643682
 21
135.2611119719
  0
LINE
  5
5A3
100
AcDbEntity
  8
0
100
AcDbLine
 62
7
  6
CONTINUOUS
 10
166.7595569964
 20
136.4631432688
 11
165.3436446711
 21
137.8756171868
  0
LINE
  5
5A4
100
AcDbEntity
  8
0
100
AcDbLine
 62
7
  6
CONTINUOUS
 10
180.7480134064
 20
127.1482253502
 11
182.1005050066
 21
125.7990181462
  0
LINE
  5
5A5
100
AcDbEntity
  8
0
100
AcDbLine
 62
7
  6
CONTINUOUS
 10
178.1343198276
 20
129.7584859097
 11
179.5480134069
 21
128.3482253497
  0
LINE
  5
5A6
100
AcDbEntity
  8
0
100
AcDbLine
 62
7
  6
CONTINUOUS
 10
175.5190624086
 20
132.3703353115
 11
176.9329529627
 21
130.9598782551
  0
LINE
  5
5A7
100
AcDbEntity
  8
0
100
AcDbLine
 62
7
  6
CONTINUOUS
 10
172.9059874128
 20
134.9799787901
 11
174.3190624087
 21
133.5703353114
  0
LINE
  5
5A8
100
AcDbEntity
  8
0
100
AcDbLine
 62
7
  6
CONTINUOUS
 10
170.2901114108
 20
137.5924452728
 11
171.7040019647
 21
136.1819882165
  0
LINE
  5
5A9
100
AcDbEntity
  8
0
100
AcDbLine
 62
7
  6
CONTINUOUS
 10
167.6764178318
 20
140.2027058325
 11
169.0901114109
 21
138.7924452727
  0
LINE
  5
5AA
100
AcDbEntity
  8
0
100
AcDbLine
 62
7
  6
CONTINUOUS
 10
166.0005050066
 20
141.8774917488
 11
166.4790945096
 21
141.4000644545
  0
LINE
  5
5AB
100
AcDbEntity
  8
0
100
AcDbLine
 62
7
  6
CONTINUOUS
 10
182.1005050066
 20
126.3639883324
 11
181.0304976649
 21
127.4313972638
  0
LINE
  5
5AC
100
AcDbEntity
  8
0
100
AcDbLine
 62
7
  6
CONTINUOUS
 10
179.831450749
 20
128.6304464942
 11
178.4194663634
 21
130.0390020111
  0
LINE
  5
5AD
100
AcDbEntity
  8
0
100
AcDbLine
 62
7
  6
CONTINUOUS
 10
177.2180994988
 20
131.2403943562
 11
175.8044059199
 21
132.6506549157
  0
LINE
  5
5AE
100
AcDbEntity
  8
0
100
AcDbLine
 62
7
  6
CONTINUOUS
 10
171.9891485009
 20
136.4625043176
 11
170.572595669
 21
137.8756171868
  0
LINE
  5
5AF
100
AcDbEntity
  8
0
100
AcDbLine
 62
7
  6
CONTINUOUS
 10
169.3735487533
 20
139.074666417
 11
167.9615643678
 21
140.4832219337
  0
LINE
  5
5B0
100
AcDbEntity
  8
0
100
AcDbLine
 62
7
  6
CONTINUOUS
 10
166.7595569964
 20
141.6852532302
 11
166.0005050066
 21
142.4424619351
  0
LINE
  5
5B1
100
AcDbEntity
  8
0
100
AcDbLine
 62
7
  6
CONTINUOUS
 10
180.7499195754
 20
132.3684337715
 11
182.1005050066
 21
131.0211281076
  0
LINE
  5
5B2
100
AcDbEntity
  8
0
100
AcDbLine
 62
7
  6
CONTINUOUS
 10
178.1343198276
 20
134.9805958711
 11
179.5480134067
 21
133.5703353113
  0
LINE
  5
5B3
100
AcDbEntity
  8
0
100
AcDbLine
 62
7
  6
CONTINUOUS
 10
175.5209685773
 20
137.5905437331
 11
176.9329529627
 21
136.1819882164
  0
LINE
  5
5B4
100
AcDbEntity
  8
0
100
AcDbLine
 62
7
  6
CONTINUOUS
 10
172.9060093363
 20
140.2020668813
 11
174.3219216617
 21
138.7895929632
  0
LINE
  5
5B5
100
AcDbEntity
  8
0
100
AcDbLine
 62
7
  6
CONTINUOUS
 10
170.316345199
 20
142.7883851522
 11
171.7040019646
 21
141.404098178
  0
LINE
  5
5B6
100
AcDbEntity
  8
0
100
AcDbLine
 62
7
  6
CONTINUOUS
 10
182.1005050066
 20
131.5860982938
 11
181.0333569175
 21
132.6506549161
  0
LINE
  5
5B7
100
AcDbEntity
  8
0
100
AcDbLine
 62
7
  6
CONTINUOUS
 10
179.831450749
 20
133.8525564556
 11
178.4194663638
 21
135.2611119721
  0
LINE
  5
5B8
100
AcDbEntity
  8
0
100
AcDbLine
 62
7
  6
CONTINUOUS
 10
177.2180994988
 20
136.4625043176
 11
175.8044059199
 21
137.8727648771
  0
LINE
  5
5B9
100
AcDbEntity
  8
0
100
AcDbLine
 62
7
  6
CONTINUOUS
 10
174.6044059199
 20
139.0727648772
 11
173.1857162149
 21
140.4879905619
  0
LINE
  5
5BA
100
AcDbEntity
  8
0
100
AcDbLine
 62
7
  6
CONTINUOUS
 10
171.9891485009
 20
141.684614279
 11
170.882690701
 21
142.7883851522
  0
LINE
  5
5BB
100
AcDbEntity
  8
0
100
AcDbLine
 62
7
  6
CONTINUOUS
 10
218.3830310747
 20
112.4873872864
 11
217.7830310746
 21
111.8873872863
  0
LINE
  5
5BC
100
AcDbEntity
  8
0
100
AcDbLine
 62
7
  6
CONTINUOUS
 10
182.1005050066
 20
64.2016540937
 11
182.1002732033
 21
64.2014228533
  0
LINE
  5
5BD
100
AcDbEntity
  8
0
100
AcDbLine
 62
7
  6
CONTINUOUS
 10
180.7480134063
 20
137.592445273
 11
182.1005050066
 21
136.243238069
  0
LINE
  5
5BE
100
AcDbEntity
  8
0
100
AcDbLine
 62
7
  6
CONTINUOUS
 10
178.1343198276
 20
140.2027058325
 11
179.5480134067
 21
138.7924452727
  0
LINE
  5
5BF
100
AcDbEntity
  8
0
100
AcDbLine
 62
7
  6
CONTINUOUS
 10
175.5452961969
 20
142.7883851522
 11
176.9377521135
 21
141.3993295496
  0
LINE
  5
5C0
100
AcDbEntity
  8
0
100
AcDbLine
 62
7
  6
CONTINUOUS
 10
182.1005050066
 20
136.8082082552
 11
181.0304976649
 21
137.8756171866
  0
LINE
  5
5C1
100
AcDbEntity
  8
0
100
AcDbLine
 62
7
  6
CONTINUOUS
 10
179.831450749
 20
139.074666417
 11
178.4194663633
 21
140.483221934
  0
LINE
  5
5C2
100
AcDbEntity
  8
0
100
AcDbLine
 62
7
  6
CONTINUOUS
 10
177.2174589922
 20
141.6852532301
 11
176.1116416989
 21
142.7883851522
  0
LINE
  5
5C3
100
AcDbEntity
  8
0
100
AcDbLine
 62
7
  6
CONTINUOUS
 10
206.9830310741
 20
111.8873872861
 11
206.3830310741
 21
112.4873872862
  0
LINE
  5
5C4
100
AcDbEntity
  8
0
100
AcDbLine
 62
7
  6
CONTINUOUS
 10
206.3830310743
 20
112.4873872862
 11
206.3830310743
 21
143.2873872856
  0
LINE
  5
5C5
100
AcDbEntity
  8
0
100
AcDbLine
 62
7
  6
CONTINUOUS
 10
206.9830310743
 20
111.887387286
 11
206.9830310743
 21
143.887387286
  0
LINE
  5
5C6
100
AcDbEntity
  8
0
100
AcDbLine
 62
7
  6
CONTINUOUS
 10
208.2330310743
 20
111.887387286
 11
208.2330310743
 21
111.737387286
  0
LINE
  5
5C7
100
AcDbEntity
  8
0
100
AcDbLine
 62
7
  6
CONTINUOUS
 10
209.7330310743
 20
111.887387286
 11
209.7330310743
 21
111.737387286
  0
LINE
  5
5C8
100
AcDbEntity
  8
0
100
AcDbLine
 62
7
  6
CONTINUOUS
 10
210.7330310743
 20
111.887387286
 11
210.7330310743
 21
143.887387286
  0
LINE
  5
5C9
100
AcDbEntity
  8
0
100
AcDbLine
 62
7
  6
CONTINUOUS
 10
211.9330310743
 20
143.887387286
 11
211.9330310743
 21
111.887387286
  0
LINE
  5
5CA
100
AcDbEntity
  8
0
100
AcDbLine
 62
7
  6
CONTINUOUS
 10
96.2005050072
 20
163.815623873
 11
182.600505006
 21
163.815623873
  0
LINE
  5
5CB
100
AcDbEntity
  8
0
100
AcDbLine
 62
7
  6
CONTINUOUS
 10
165.4005050066
 20
164.415623873
 11
164.6005050066
 21
164.415623873
  0
LINE
  5
5CC
100
AcDbEntity
  8
0
100
AcDbLine
 62
7
  6
CONTINUOUS
 10
95.6005050066
 20
164.415623873
 11
164.5005050066
 21
164.4156238728
  0
LINE
  5
5CD
100
AcDbEntity
  8
0
100
AcDbLine
 62
7
  6
CONTINUOUS
 10
165.5005050066
 20
164.4156238727
 11
183.2005050066
 21
164.415623873
  0
LINE
  5
5CE
100
AcDbEntity
  8
0
100
AcDbLine
 62
7
  6
CONTINUOUS
 10
164.5005050066
 20
164.815623873
 11
164.6005050066
 21
164.815623873
  0
LINE
  5
5CF
100
AcDbEntity
  8
0
100
AcDbLine
 62
7
  6
CONTINUOUS
 10
165.4005050066
 20
164.815623873
 11
165.5005050066
 21
164.815623873
  0
LINE
  5
5D0
100
AcDbEntity
  8
0
100
AcDbLine
 62
7
  6
CONTINUOUS
 10
164.5005050066
 20
165.815623873
 11
165.5005050066
 21
165.815623873
  0
LINE
  5
5D1
100
AcDbEntity
  8
0
100
AcDbLine
 62
7
  6
CONTINUOUS
 10
183.2005050066
 20
168.165623873
 11
137.2505050066
 21
168.165623873
  0
LINE
  5
5D2
100
AcDbEntity
  8
0
100
AcDbLine
 62
7
  6
CONTINUOUS
 10
103.8505050066
 20
168.165623873
 11
104.6505050066
 21
168.165623873
  0
LINE
  5
5D3
100
AcDbEntity
  8
0
100
AcDbLine
 62
7
  6
CONTINUOUS
 10
106.2505050066
 20
168.165623873
 11
107.0505050066
 21
168.165623873
  0
LINE
  5
5D4
100
AcDbEntity
  8
0
100
AcDbLine
 62
7
  6
CONTINUOUS
 10
108.6505050066
 20
168.165623873
 11
109.4505050066
 21
168.165623873
  0
LINE
  5
5D5
100
AcDbEntity
  8
0
100
AcDbLine
 62
7
  6
CONTINUOUS
 10
111.0505050066
 20
168.165623873
 11
111.8505050066
 21
168.165623873
  0
LINE
  5
5D6
100
AcDbEntity
  8
0
100
AcDbLine
 62
7
  6
CONTINUOUS
 10
113.4505050066
 20
168.165623873
 11
114.2505050066
 21
168.165623873
  0
LINE
  5
5D7
100
AcDbEntity
  8
0
100
AcDbLine
 62
7
  6
CONTINUOUS
 10
115.8505050066
 20
168.165623873
 11
116.6505050066
 21
168.165623873
  0
LINE
  5
5D8
100
AcDbEntity
  8
0
100
AcDbLine
 62
7
  6
CONTINUOUS
 10
118.2505050066
 20
168.165623873
 11
119.0505050066
 21
168.165623873
  0
LINE
  5
5D9
100
AcDbEntity
  8
0
100
AcDbLine
 62
7
  6
CONTINUOUS
 10
120.6505050066
 20
168.165623873
 11
121.4505050066
 21
168.165623873
  0
LINE
  5
5DA
100
AcDbEntity
  8
0
100
AcDbLine
 62
7
  6
CONTINUOUS
 10
123.0505050066
 20
168.165623873
 11
123.8505050066
 21
168.165623873
  0
LINE
  5
5DB
100
AcDbEntity
  8
0
100
AcDbLine
 62
7
  6
CONTINUOUS
 10
125.4505050066
 20
168.165623873
 11
126.2505050066
 21
168.165623873
  0
LINE
  5
5DC
100
AcDbEntity
  8
0
100
AcDbLine
 62
7
  6
CONTINUOUS
 10
127.8505050066
 20
168.165623873
 11
128.6505050066
 21
168.165623873
  0
LINE
  5
5DD
100
AcDbEntity
  8
0
100
AcDbLine
 62
7
  6
CONTINUOUS
 10
130.2505050066
 20
168.165623873
 11
131.0505050066
 21
168.165623873
  0
LINE
  5
5DE
100
AcDbEntity
  8
0
100
AcDbLine
 62
7
  6
CONTINUOUS
 10
132.6505050066
 20
168.165623873
 11
133.4505050066
 21
168.165623873
  0
LINE
  5
5DF
100
AcDbEntity
  8
0
100
AcDbLine
 62
7
  6
CONTINUOUS
 10
135.0505050066
 20
168.165623873
 11
135.8505050066
 21
168.165623873
  0
LINE
  5
5E0
100
AcDbEntity
  8
0
100
AcDbLine
 62
7
  6
CONTINUOUS
 10
182.894949451
 20
170.365623873
 11
182.9505050051
 21
170.2656238757
  0
LINE
  5
5E1
100
AcDbEntity
  8
0
100
AcDbLine
 62
7
  6
CONTINUOUS
 10
212.8330310743
 20
111.887387286
 11
212.8330310743
 21
143.887387286
  0
LINE
  5
5E2
100
AcDbEntity
  8
0
100
AcDbLine
 62
7
  6
CONTINUOUS
 10
212.9330310743
 20
143.887387286
 11
212.9330310743
 21
111.887387286
  0
LINE
  5
5E3
100
AcDbEntity
  8
0
100
AcDbLine
 62
7
  6
CONTINUOUS
 10
213.8330310743
 20
111.887387286
 11
213.8330310743
 21
143.887387286
  0
LINE
  5
5E4
100
AcDbEntity
  8
0
100
AcDbLine
 62
7
  6
CONTINUOUS
 10
215.0330310743
 20
143.887387286
 11
215.0330310743
 21
111.887387286
  0
LINE
  5
5E5
100
AcDbEntity
  8
0
100
AcDbLine
 62
7
  6
CONTINUOUS
 10
217.7830310743
 20
111.887387286
 11
217.7830310743
 21
143.887387286
  0
LINE
  5
5E6
100
AcDbEntity
  8
0
100
AcDbLine
 62
7
  6
CONTINUOUS
 10
218.3830310743
 20
112.4873872866
 11
218.3830310743
 21
143.2873872854
  0
LINE
  5
5E7
100
AcDbEntity
  8
0
100
AcDbLine
 62
7
  6
CONTINUOUS
 10
95.6005050066
 20
168.765623873
 11
86.0005050066
 21
168.765623873
  0
LINE
  5
5E8
100
AcDbEntity
  8
0
100
AcDbLine
 62
7
  6
CONTINUOUS
 10
135.8505050066
 20
169.365623873
 11
135.0505050066
 21
169.365623873
  0
LINE
  5
5E9
100
AcDbEntity
  8
0
100
AcDbLine
 62
7
  6
CONTINUOUS
 10
133.4505050066
 20
169.365623873
 11
132.6505050066
 21
169.365623873
  0
LINE
  5
5EA
100
AcDbEntity
  8
0
100
AcDbLine
 62
7
  6
CONTINUOUS
 10
131.0505050066
 20
169.365623873
 11
130.2505050066
 21
169.365623873
  0
LINE
  5
5EB
100
AcDbEntity
  8
0
100
AcDbLine
 62
7
  6
CONTINUOUS
 10
128.6505050066
 20
169.365623873
 11
127.8505050066
 21
169.365623873
  0
LINE
  5
5EC
100
AcDbEntity
  8
0
100
AcDbLine
 62
7
  6
CONTINUOUS
 10
126.2505050066
 20
169.365623873
 11
125.4505050066
 21
169.365623873
  0
LINE
  5
5ED
100
AcDbEntity
  8
0
100
AcDbLine
 62
7
  6
CONTINUOUS
 10
123.8505050066
 20
169.365623873
 11
123.0505050066
 21
169.365623873
  0
LINE
  5
5EE
100
AcDbEntity
  8
0
100
AcDbLine
 62
7
  6
CONTINUOUS
 10
121.4505050066
 20
169.365623873
 11
120.6505050066
 21
169.365623873
  0
LINE
  5
5EF
100
AcDbEntity
  8
0
100
AcDbLine
 62
7
  6
CONTINUOUS
 10
119.0505050066
 20
169.365623873
 11
118.2505050066
 21
169.365623873
  0
LINE
  5
5F0
100
AcDbEntity
  8
0
100
AcDbLine
 62
7
  6
CONTINUOUS
 10
116.6505050066
 20
169.365623873
 11
115.8505050066
 21
169.365623873
  0
LINE
  5
5F1
100
AcDbEntity
  8
0
100
AcDbLine
 62
7
  6
CONTINUOUS
 10
114.2505050066
 20
169.365623873
 11
113.4505050066
 21
169.365623873
  0
LINE
  5
5F2
100
AcDbEntity
  8
0
100
AcDbLine
 62
7
  6
CONTINUOUS
 10
111.8505050066
 20
169.365623873
 11
111.0505050066
 21
169.365623873
  0
LINE
  5
5F3
100
AcDbEntity
  8
0
100
AcDbLine
 62
7
  6
CONTINUOUS
 10
109.4505050066
 20
169.365623873
 11
108.6505050066
 21
169.365623873
  0
LINE
  5
5F4
100
AcDbEntity
  8
0
100
AcDbLine
 62
7
  6
CONTINUOUS
 10
107.0505050066
 20
169.365623873
 11
106.2505050066
 21
169.365623873
  0
LINE
  5
5F5
100
AcDbEntity
  8
0
100
AcDbLine
 62
7
  6
CONTINUOUS
 10
104.6505050066
 20
169.365623873
 11
103.8505050066
 21
169.365623873
  0
LINE
  5
5F6
100
AcDbEntity
  8
0
100
AcDbLine
 62
7
  6
CONTINUOUS
 10
137.2505050066
 20
169.365623873
 11
183.2005050066
 21
169.365623873
  0
LINE
  5
5F7
100
AcDbEntity
  8
0
100
AcDbLine
 62
7
  6
CONTINUOUS
 10
95.6005050066
 20
170.265623873
 11
183.2005050066
 21
170.265623873
  0
LINE
  5
5F8
100
AcDbEntity
  8
0
100
AcDbLine
 62
7
  6
CONTINUOUS
 10
95.6005050066
 20
170.365623873
 11
183.2005050066
 21
170.365623873
  0
LINE
  5
5F9
100
AcDbEntity
  8
0
100
AcDbLine
 62
7
  6
CONTINUOUS
 10
183.2005050066
 20
171.265623873
 11
137.2505050066
 21
171.265623873
  0
LINE
  5
5FA
100
AcDbEntity
  8
0
100
AcDbLine
 62
7
  6
CONTINUOUS
 10
135.8505050066
 20
171.265623873
 11
135.0505050066
 21
171.265623873
  0
LINE
  5
5FB
100
AcDbEntity
  8
0
100
AcDbLine
 62
7
  6
CONTINUOUS
 10
133.4505050066
 20
171.265623873
 11
132.6505050066
 21
171.265623873
  0
LINE
  5
5FC
100
AcDbEntity
  8
0
100
AcDbLine
 62
7
  6
CONTINUOUS
 10
131.0505050066
 20
171.265623873
 11
130.2505050066
 21
171.265623873
  0
LINE
  5
5FD
100
AcDbEntity
  8
0
100
AcDbLine
 62
7
  6
CONTINUOUS
 10
128.6505050066
 20
171.265623873
 11
127.8505050066
 21
171.265623873
  0
LINE
  5
5FE
100
AcDbEntity
  8
0
100
AcDbLine
 62
7
  6
CONTINUOUS
 10
126.2505050066
 20
171.265623873
 11
125.4505050066
 21
171.265623873
  0
LINE
  5
5FF
100
AcDbEntity
  8
0
100
AcDbLine
 62
7
  6
CONTINUOUS
 10
123.8505050066
 20
171.265623873
 11
123.0505050066
 21
171.265623873
  0
LINE
  5
600
100
AcDbEntity
  8
0
100
AcDbLine
 62
7
  6
CONTINUOUS
 10
121.4505050066
 20
171.265623873
 11
120.6505050066
 21
171.265623873
  0
LINE
  5
601
100
AcDbEntity
  8
0
100
AcDbLine
 62
7
  6
CONTINUOUS
 10
119.0505050066
 20
171.265623873
 11
118.2505050066
 21
171.265623873
  0
LINE
  5
602
100
AcDbEntity
  8
0
100
AcDbLine
 62
7
  6
CONTINUOUS
 10
116.6505050066
 20
171.265623873
 11
115.8505050066
 21
171.265623873
  0
LINE
  5
603
100
AcDbEntity
  8
0
100
AcDbLine
 62
7
  6
CONTINUOUS
 10
114.2505050066
 20
171.265623873
 11
113.4505050066
 21
171.265623873
  0
LINE
  5
604
100
AcDbEntity
  8
0
100
AcDbLine
 62
7
  6
CONTINUOUS
 10
111.8505050066
 20
171.265623873
 11
111.0505050066
 21
171.265623873
  0
LINE
  5
605
100
AcDbEntity
  8
0
100
AcDbLine
 62
7
  6
CONTINUOUS
 10
109.4505050066
 20
171.265623873
 11
108.6505050066
 21
171.265623873
  0
LINE
  5
606
100
AcDbEntity
  8
0
100
AcDbLine
 62
7
  6
CONTINUOUS
 10
107.0505050066
 20
171.265623873
 11
106.2505050066
 21
171.265623873
  0
LINE
  5
607
100
AcDbEntity
  8
0
100
AcDbLine
 62
7
  6
CONTINUOUS
 10
104.6505050066
 20
171.265623873
 11
103.8505050066
 21
171.265623873
  0
LINE
  5
608
100
AcDbEntity
  8
0
100
AcDbLine
 62
7
  6
CONTINUOUS
 10
103.8505050066
 20
172.465623873
 11
104.6505050066
 21
172.465623873
  0
LINE
  5
609
100
AcDbEntity
  8
0
100
AcDbLine
 62
7
  6
CONTINUOUS
 10
106.2505050066
 20
172.465623873
 11
107.0505050066
 21
172.465623873
  0
LINE
  5
60A
100
AcDbEntity
  8
0
100
AcDbLine
 62
7
  6
CONTINUOUS
 10
108.6505050066
 20
172.465623873
 11
109.4505050066
 21
172.465623873
  0
LINE
  5
60B
100
AcDbEntity
  8
0
100
AcDbLine
 62
7
  6
CONTINUOUS
 10
111.0505050066
 20
172.465623873
 11
111.8505050066
 21
172.465623873
  0
LINE
  5
60C
100
AcDbEntity
  8
0
100
AcDbLine
 62
7
  6
CONTINUOUS
 10
113.4505050066
 20
172.465623873
 11
114.2505050066
 21
172.465623873
  0
LINE
  5
60D
100
AcDbEntity
  8
0
100
AcDbLine
 62
7
  6
CONTINUOUS
 10
115.8505050066
 20
172.465623873
 11
116.6505050066
 21
172.465623873
  0
LINE
  5
60E
100
AcDbEntity
  8
0
100
AcDbLine
 62
7
  6
CONTINUOUS
 10
118.2505050066
 20
172.465623873
 11
119.0505050066
 21
172.465623873
  0
LINE
  5
60F
100
AcDbEntity
  8
0
100
AcDbLine
 62
7
  6
CONTINUOUS
 10
120.6505050066
 20
172.465623873
 11
121.4505050066
 21
172.465623873
  0
LINE
  5
610
100
AcDbEntity
  8
0
100
AcDbLine
 62
7
  6
CONTINUOUS
 10
123.0505050066
 20
172.465623873
 11
123.8505050066
 21
172.465623873
  0
LINE
  5
611
100
AcDbEntity
  8
0
100
AcDbLine
 62
7
  6
CONTINUOUS
 10
125.4505050066
 20
172.465623873
 11
126.2505050066
 21
172.465623873
  0
LINE
  5
612
100
AcDbEntity
  8
0
100
AcDbLine
 62
7
  6
CONTINUOUS
 10
127.8505050066
 20
172.465623873
 11
128.6505050066
 21
172.465623873
  0
LINE
  5
613
100
AcDbEntity
  8
0
100
AcDbLine
 62
7
  6
CONTINUOUS
 10
130.2505050066
 20
172.465623873
 11
131.0505050066
 21
172.465623873
  0
LINE
  5
614
100
AcDbEntity
  8
0
100
AcDbLine
 62
7
  6
CONTINUOUS
 10
132.6505050066
 20
172.465623873
 11
133.4505050066
 21
172.465623873
  0
LINE
  5
615
100
AcDbEntity
  8
0
100
AcDbLine
 62
7
  6
CONTINUOUS
 10
135.0505050066
 20
172.465623873
 11
135.8505050066
 21
172.465623873
  0
LINE
  5
616
100
AcDbEntity
  8
0
100
AcDbLine
 62
7
  6
CONTINUOUS
 10
137.2505050066
 20
172.465623873
 11
183.2005050066
 21
172.465623873
  0
LINE
  5
617
100
AcDbEntity
  8
0
100
AcDbLine
 62
7
  6
CONTINUOUS
 10
86.0005050066
 20
173.265623873
 11
95.6005050066
 21
173.265623873
  0
LINE
  5
618
100
AcDbEntity
  8
0
100
AcDbLine
 62
7
  6
CONTINUOUS
 10
95.6005050066
 20
175.215623873
 11
183.2005050066
 21
175.215623873
  0
LINE
  5
619
100
AcDbEntity
  8
0
100
AcDbLine
 62
7
  6
CONTINUOUS
 10
96.2005050072
 20
175.815623873
 11
182.600505006
 21
175.815623873
  0
LINE
  5
61A
100
AcDbEntity
  8
0
100
AcDbLine
 62
7
  6
CONTINUOUS
 10
212.8330310769
 20
143.6373872845
 11
212.9330310743
 21
143.5818317304
  0
LINE
  5
61B
100
AcDbEntity
  8
0
100
AcDbLine
 62
7
  6
CONTINUOUS
 10
182.6005050061
 20
175.8156238735
 11
183.2005050063
 21
175.2156238733
  0
LINE
  5
61C
100
AcDbEntity
  8
0
100
AcDbLine
 62
7
  6
CONTINUOUS
 10
217.7830310746
 20
143.8873872857
 11
218.3830310747
 21
143.2873872855
  0
LINE
  5
61D
100
AcDbEntity
  8
0
100
AcDbLine
 62
7
  6
CONTINUOUS
 10
0.0
 20
210.0
 11
297.0
 21
210.0
  0
LINE
  5
61E
100
AcDbEntity
  8
0
100
AcDbLine
 62
7
  6
CONTINUOUS
 10
297.0
 20
0.0
 11
297.0
 21
210.0
  0
ARC
  5
61F
100
AcDbEntity
  8
0
100
AcDbCircle
 62
7
  6
CONTINUOUS
 10
-89.8990986523
 20
88.6006765935
 40
238.5129112162
100
AcDbArc
 50
359.6596902817
 51
359.8024226073
  0
ARC
  5
620
100
AcDbEntity
  8
0
100
AcDbCircle
 62
7
  6
CONTINUOUS
 10
99.1005050066
 20
64.1680671648
 40
3.5
100
AcDbArc
 50
89.9999999628
 51
180.0
  0
ARC
  5
621
100
AcDbEntity
  8
0
100
AcDbCircle
 62
7
  6
CONTINUOUS
 10
99.1005050066
 20
39.1680671648
 40
3.5
100
AcDbArc
 50
179.9999999501
 51
270.0
  0
ARC
  5
622
100
AcDbEntity
  8
0
100
AcDbCircle
 62
7
  6
CONTINUOUS
 10
99.1005050066
 20
64.1680671648
 40
2.9
100
AcDbArc
 50
90.0000007447
 51
179.9999989377
  0
ARC
  5
623
100
AcDbEntity
  8
0
100
AcDbCircle
 62
7
  6
CONTINUOUS
 10
99.1005050066
 20
39.1680671648
 40
2.9
100
AcDbArc
 50
180.0000010793
 51
269.9999992684
  0
ARC
  5
624
100
AcDbEntity
  8
0
100
AcDbCircle
 62
7
  6
CONTINUOUS
 10
90.9505050066
 20
49.5680671648
 40
0.3
100
AcDbArc
 50
0.0
 51
90.0
  0
ARC
  5
625
100
AcDbEntity
  8
0
100
AcDbCircle
 62
7
  6
CONTINUOUS
 10
90.0505050066
 20
49.5680671648
 40
0.3
100
AcDbArc
 50
90.0
 51
180.0
  0
ARC
  5
626
100
AcDbEntity
  8
0
100
AcDbCircle
 62
7
  6
CONTINUOUS
 10
90.0505050066
 20
48.6680671648
 40
0.3
100
AcDbArc
 50
180.0
 51
270.0
  0
ARC
  5
627
100
AcDbEntity
  8
0
100
AcDbCircle
 62
7
  6
CONTINUOUS
 10
90.9505050066
 20
48.6680671648
 40
0.3
100
AcDbArc
 50
270.0
 51
360.0
  0
ARC
  5
628
100
AcDbEntity
  8
0
100
AcDbCircle
 62
7
  6
CONTINUOUS
 10
90.9505050066
 20
53.7680671648
 40
0.3
100
AcDbArc
 50
270.0
 51
360.0
  0
ARC
  5
629
100
AcDbEntity
  8
0
100
AcDbCircle
 62
7
  6
CONTINUOUS
 10
90.0505050066
 20
53.7680671648
 40
0.3
100
AcDbArc
 50
180.0
 51
270.0
  0
ARC
  5
62A
100
AcDbEntity
  8
0
100
AcDbCircle
 62
7
  6
CONTINUOUS
 10
90.0505050066
 20
54.6680671648
 40
0.3
100
AcDbArc
 50
90.0
 51
180.0
  0
ARC
  5
62B
100
AcDbEntity
  8
0
100
AcDbCircle
 62
7
  6
CONTINUOUS
 10
90.9505050066
 20
54.6680671648
 40
0.3
100
AcDbArc
 50
0.0
 51
90.0
  0
ARC
  5
62C
100
AcDbEntity
  8
0
100
AcDbCircle
 62
7
  6
CONTINUOUS
 10
103.8505050066
 20
87.3870540725
 40
0.2
100
AcDbArc
 50
180.0000000002
 51
270.0
  0
ARC
  5
62D
100
AcDbEntity
  8
0
100
AcDbCircle
 62
7
  6
CONTINUOUS
 10
104.6505050066
 20
87.3870540725
 40
0.2
100
AcDbArc
 50
270.0
 51
360.0
  0
ARC
  5
62E
100
AcDbEntity
  8
0
100
AcDbCircle
 62
7
  6
CONTINUOUS
 10
106.2505050066
 20
87.3870540725
 40
0.2
100
AcDbArc
 50
180.0
 51
270.0
  0
ARC
  5
62F
100
AcDbEntity
  8
0
100
AcDbCircle
 62
7
  6
CONTINUOUS
 10
107.0505050066
 20
87.3870540725
 40
0.2
100
AcDbArc
 50
270.0
 51
359.9999999998
  0
ARC
  5
630
100
AcDbEntity
  8
0
100
AcDbCircle
 62
7
  6
CONTINUOUS
 10
108.6505050066
 20
87.3870540725
 40
0.2
100
AcDbArc
 50
180.0
 51
270.0
  0
ARC
  5
631
100
AcDbEntity
  8
0
100
AcDbCircle
 62
7
  6
CONTINUOUS
 10
109.4505050066
 20
87.3870540725
 40
0.2
100
AcDbArc
 50
270.0
 51
360.0
  0
ARC
  5
632
100
AcDbEntity
  8
0
100
AcDbCircle
 62
7
  6
CONTINUOUS
 10
111.0505050066
 20
87.3870540725
 40
0.2
100
AcDbArc
 50
180.0
 51
270.0
  0
ARC
  5
633
100
AcDbEntity
  8
0
100
AcDbCircle
 62
7
  6
CONTINUOUS
 10
111.8505050066
 20
87.3870540725
 40
0.2
100
AcDbArc
 50
270.0
 51
360.0
  0
ARC
  5
634
100
AcDbEntity
  8
0
100
AcDbCircle
 62
7
  6
CONTINUOUS
 10
113.4505050066
 20
87.3870540725
 40
0.2
100
AcDbArc
 50
180.0
 51
270.0
  0
ARC
  5
635
100
AcDbEntity
  8
0
100
AcDbCircle
 62
7
  6
CONTINUOUS
 10
114.2505050066
 20
87.3870540725
 40
0.2
100
AcDbArc
 50
270.0
 51
360.0
  0
ARC
  5
636
100
AcDbEntity
  8
0
100
AcDbCircle
 62
7
  6
CONTINUOUS
 10
115.8505050066
 20
87.3870540725
 40
0.2
100
AcDbArc
 50
180.0000000002
 51
270.0
  0
ARC
  5
637
100
AcDbEntity
  8
0
100
AcDbCircle
 62
7
  6
CONTINUOUS
 10
103.8505050066
 20
88.1870540725
 40
0.2
100
AcDbArc
 50
90.0
 51
179.9999999998
  0
ARC
  5
638
100
AcDbEntity
  8
0
100
AcDbCircle
 62
7
  6
CONTINUOUS
 10
104.6505050066
 20
88.1870540725
 40
0.2
100
AcDbArc
 50
0.0
 51
90.0
  0
ARC
  5
639
100
AcDbEntity
  8
0
100
AcDbCircle
 62
7
  6
CONTINUOUS
 10
106.2505050066
 20
88.1870540725
 40
0.2
100
AcDbArc
 50
90.0
 51
180.0
  0
ARC
  5
63A
100
AcDbEntity
  8
0
100
AcDbCircle
 62
7
  6
CONTINUOUS
 10
107.0505050066
 20
88.1870540725
 40
0.2
100
AcDbArc
 50
0.0000000002
 51
90.0
  0
ARC
  5
63B
100
AcDbEntity
  8
0
100
AcDbCircle
 62
7
  6
CONTINUOUS
 10
108.6505050066
 20
88.1870540725
 40
0.2
100
AcDbArc
 50
90.0
 51
180.0
  0
ARC
  5
63C
100
AcDbEntity
  8
0
100
AcDbCircle
 62
7
  6
CONTINUOUS
 10
109.4505050066
 20
88.1870540725
 40
0.2
100
AcDbArc
 50
0.0
 51
90.0
  0
ARC
  5
63D
100
AcDbEntity
  8
0
100
AcDbCircle
 62
7
  6
CONTINUOUS
 10
111.0505050066
 20
88.1870540725
 40
0.2
100
AcDbArc
 50
90.0
 51
180.0
  0
ARC
  5
63E
100
AcDbEntity
  8
0
100
AcDbCircle
 62
7
  6
CONTINUOUS
 10
111.8505050066
 20
88.1870540725
 40
0.2
100
AcDbArc
 50
0.0
 51
90.0
  0
ARC
  5
63F
100
AcDbEntity
  8
0
100
AcDbCircle
 62
7
  6
CONTINUOUS
 10
113.4505050066
 20
88.1870540725
 40
0.2
100
AcDbArc
 50
90.0
 51
180.0
  0
ARC
  5
640
100
AcDbEntity
  8
0
100
AcDbCircle
 62
7
  6
CONTINUOUS
 10
114.2505050066
 20
88.1870540725
 40
0.2
100
AcDbArc
 50
0.0
 51
90.0
  0
ARC
  5
641
100
AcDbEntity
  8
0
100
AcDbCircle
 62
7
  6
CONTINUOUS
 10
115.8505050066
 20
88.1870540725
 40
0.2
100
AcDbArc
 50
90.0
 51
179.9999999998
  0
ARC
  5
642
100
AcDbEntity
  8
0
100
AcDbCircle
 62
7
  6
CONTINUOUS
 10
116.6505050066
 20
87.3870540725
 40
0.2
100
AcDbArc
 50
270.0
 51
360.0
  0
ARC
  5
643
100
AcDbEntity
  8
0
100
AcDbCircle
 62
7
  6
CONTINUOUS
 10
118.2505050066
 20
87.3870540725
 40
0.2
100
AcDbArc
 50
180.0
 51
270.0
  0
ARC
  5
644
100
AcDbEntity
  8
0
100
AcDbCircle
 62
7
  6
CONTINUOUS
 10
119.0505050066
 20
87.3870540725
 40
0.2
100
AcDbArc
 50
270.0
 51
359.9999999999
  0
ARC
  5
645
100
AcDbEntity
  8
0
100
AcDbCircle
 62
7
  6
CONTINUOUS
 10
120.6505050066
 20
87.3870540725
 40
0.2
100
AcDbArc
 50
180.0
 51
270.0
  0
ARC
  5
646
100
AcDbEntity
  8
0
100
AcDbCircle
 62
7
  6
CONTINUOUS
 10
121.4505050066
 20
87.3870540725
 40
0.2
100
AcDbArc
 50
270.0
 51
360.0
  0
ARC
  5
647
100
AcDbEntity
  8
0
100
AcDbCircle
 62
7
  6
CONTINUOUS
 10
123.0505050066
 20
87.3870540725
 40
0.2
100
AcDbArc
 50
180.0
 51
270.0
  0
ARC
  5
648
100
AcDbEntity
  8
0
100
AcDbCircle
 62
7
  6
CONTINUOUS
 10
123.8505050066
 20
87.3870540725
 40
0.2
100
AcDbArc
 50
270.0
 51
360.0
  0
ARC
  5
649
100
AcDbEntity
  8
0
100
AcDbCircle
 62
7
  6
CONTINUOUS
 10
125.4505050066
 20
87.3870540725
 40
0.2
100
AcDbArc
 50
180.0
 51
270.0
  0
ARC
  5
64A
100
AcDbEntity
  8
0
100
AcDbCircle
 62
7
  6
CONTINUOUS
 10
126.2505050066
 20
87.3870540725
 40
0.2
100
AcDbArc
 50
270.0
 51
360.0
  0
ARC
  5
64B
100
AcDbEntity
  8
0
100
AcDbCircle
 62
7
  6
CONTINUOUS
 10
127.8505050066
 20
87.3870540725
 40
0.2
100
AcDbArc
 50
180.0000000001
 51
270.0
  0
ARC
  5
64C
100
AcDbEntity
  8
0
100
AcDbCircle
 62
7
  6
CONTINUOUS
 10
128.6505050066
 20
87.3870540725
 40
0.2
100
AcDbArc
 50
270.0
 51
359.9999999999
  0
ARC
  5
64D
100
AcDbEntity
  8
0
100
AcDbCircle
 62
7
  6
CONTINUOUS
 10
116.6505050066
 20
88.1870540725
 40
0.2
100
AcDbArc
 50
0.0
 51
90.0
  0
ARC
  5
64E
100
AcDbEntity
  8
0
100
AcDbCircle
 62
7
  6
CONTINUOUS
 10
118.2505050066
 20
88.1870540725
 40
0.2
100
AcDbArc
 50
90.0
 51
180.0
  0
ARC
  5
64F
100
AcDbEntity
  8
0
100
AcDbCircle
 62
7
  6
CONTINUOUS
 10
119.0505050066
 20
88.1870540725
 40
0.2
100
AcDbArc
 50
0.0000000001
 51
90.0
  0
ARC
  5
650
100
AcDbEntity
  8
0
100
AcDbCircle
 62
7
  6
CONTINUOUS
 10
120.6505050066
 20
88.1870540725
 40
0.2
100
AcDbArc
 50
90.0
 51
180.0
  0
ARC
  5
651
100
AcDbEntity
  8
0
100
AcDbCircle
 62
7
  6
CONTINUOUS
 10
121.4505050066
 20
88.1870540725
 40
0.2
100
AcDbArc
 50
0.0
 51
90.0
  0
ARC
  5
652
100
AcDbEntity
  8
0
100
AcDbCircle
 62
7
  6
CONTINUOUS
 10
123.0505050066
 20
88.1870540725
 40
0.2
100
AcDbArc
 50
90.0
 51
180.0
  0
ARC
  5
653
100
AcDbEntity
  8
0
100
AcDbCircle
 62
7
  6
CONTINUOUS
 10
123.8505050066
 20
88.1870540725
 40
0.2
100
AcDbArc
 50
0.0
 51
90.0
  0
ARC
  5
654
100
AcDbEntity
  8
0
100
AcDbCircle
 62
7
  6
CONTINUOUS
 10
125.4505050066
 20
88.1870540725
 40
0.2
100
AcDbArc
 50
90.0
 51
180.0
  0
ARC
  5
655
100
AcDbEntity
  8
0
100
AcDbCircle
 62
7
  6
CONTINUOUS
 10
126.2505050066
 20
88.1870540725
 40
0.2
100
AcDbArc
 50
0.0
 51
90.0
  0
ARC
  5
656
100
AcDbEntity
  8
0
100
AcDbCircle
 62
7
  6
CONTINUOUS
 10
127.8505050066
 20
88.1870540725
 40
0.2
100
AcDbArc
 50
90.0
 51
179.9999999999
  0
ARC
  5
657
100
AcDbEntity
  8
0
100
AcDbCircle
 62
7
  6
CONTINUOUS
 10
128.6505050066
 20
88.1870540725
 40
0.2
100
AcDbArc
 50
0.0000000001
 51
90.0
  0
ARC
  5
658
100
AcDbEntity
  8
0
100
AcDbCircle
 62
7
  6
CONTINUOUS
 10
115.8505050066
 20
90.4870540725
 40
0.2
100
AcDbArc
 50
180.0000000002
 51
270.0
  0
ARC
  5
659
100
AcDbEntity
  8
0
100
AcDbCircle
 62
7
  6
CONTINUOUS
 10
113.4505050066
 20
90.4870540725
 40
0.2
100
AcDbArc
 50
180.0
 51
270.0
  0
ARC
  5
65A
100
AcDbEntity
  8
0
100
AcDbCircle
 62
7
  6
CONTINUOUS
 10
114.2505050066
 20
90.4870540725
 40
0.2
100
AcDbArc
 50
270.0
 51
360.0
  0
ARC
  5
65B
100
AcDbEntity
  8
0
100
AcDbCircle
 62
7
  6
CONTINUOUS
 10
111.0505050066
 20
90.4870540725
 40
0.2
100
AcDbArc
 50
180.0
 51
270.0
  0
ARC
  5
65C
100
AcDbEntity
  8
0
100
AcDbCircle
 62
7
  6
CONTINUOUS
 10
111.8505050066
 20
90.4870540725
 40
0.2
100
AcDbArc
 50
270.0
 51
360.0
  0
ARC
  5
65D
100
AcDbEntity
  8
0
100
AcDbCircle
 62
7
  6
CONTINUOUS
 10
108.6505050066
 20
90.4870540725
 40
0.2
100
AcDbArc
 50
180.0
 51
270.0
  0
ARC
  5
65E
100
AcDbEntity
  8
0
100
AcDbCircle
 62
7
  6
CONTINUOUS
 10
109.4505050066
 20
90.4870540725
 40
0.2
100
AcDbArc
 50
270.0
 51
360.0
  0
ARC
  5
65F
100
AcDbEntity
  8
0
100
AcDbCircle
 62
7
  6
CONTINUOUS
 10
106.2505050066
 20
90.4870540725
 40
0.2
100
AcDbArc
 50
180.0
 51
270.0
  0
ARC
  5
660
100
AcDbEntity
  8
0
100
AcDbCircle
 62
7
  6
CONTINUOUS
 10
107.0505050066
 20
90.4870540725
 40
0.2
100
AcDbArc
 50
270.0
 51
359.9999999998
  0
ARC
  5
661
100
AcDbEntity
  8
0
100
AcDbCircle
 62
7
  6
CONTINUOUS
 10
103.8505050066
 20
90.4870540725
 40
0.2
100
AcDbArc
 50
180.0000000002
 51
270.0
  0
ARC
  5
662
100
AcDbEntity
  8
0
100
AcDbCircle
 62
7
  6
CONTINUOUS
 10
104.6505050066
 20
90.4870540725
 40
0.2
100
AcDbArc
 50
270.0
 51
360.0
  0
ARC
  5
663
100
AcDbEntity
  8
0
100
AcDbCircle
 62
7
  6
CONTINUOUS
 10
115.8505050066
 20
91.2870540725
 40
0.2
100
AcDbArc
 50
90.0
 51
179.9999999998
  0
ARC
  5
664
100
AcDbEntity
  8
0
100
AcDbCircle
 62
7
  6
CONTINUOUS
 10
114.2505050066
 20
91.2870540725
 40
0.2
100
AcDbArc
 50
0.0
 51
90.0
  0
ARC
  5
665
100
AcDbEntity
  8
0
100
AcDbCircle
 62
7
  6
CONTINUOUS
 10
113.4505050066
 20
91.2870540725
 40
0.2
100
AcDbArc
 50
90.0
 51
180.0
  0
ARC
  5
666
100
AcDbEntity
  8
0
100
AcDbCircle
 62
7
  6
CONTINUOUS
 10
111.8505050066
 20
91.2870540725
 40
0.2
100
AcDbArc
 50
0.0
 51
90.0
  0
ARC
  5
667
100
AcDbEntity
  8
0
100
AcDbCircle
 62
7
  6
CONTINUOUS
 10
111.0505050066
 20
91.2870540725
 40
0.2
100
AcDbArc
 50
90.0
 51
180.0
  0
ARC
  5
668
100
AcDbEntity
  8
0
100
AcDbCircle
 62
7
  6
CONTINUOUS
 10
109.4505050066
 20
91.2870540725
 40
0.2
100
AcDbArc
 50
0.0
 51
90.0
  0
ARC
  5
669
100
AcDbEntity
  8
0
100
AcDbCircle
 62
7
  6
CONTINUOUS
 10
108.6505050066
 20
91.2870540725
 40
0.2
100
AcDbArc
 50
90.0
 51
180.0
  0
ARC
  5
66A
100
AcDbEntity
  8
0
100
AcDbCircle
 62
7
  6
CONTINUOUS
 10
107.0505050066
 20
91.2870540725
 40
0.2
100
AcDbArc
 50
0.0000000002
 51
90.0
  0
ARC
  5
66B
100
AcDbEntity
  8
0
100
AcDbCircle
 62
7
  6
CONTINUOUS
 10
106.2505050066
 20
91.2870540725
 40
0.2
100
AcDbArc
 50
90.0
 51
180.0
  0
ARC
  5
66C
100
AcDbEntity
  8
0
100
AcDbCircle
 62
7
  6
CONTINUOUS
 10
104.6505050066
 20
91.2870540725
 40
0.2
100
AcDbArc
 50
0.0
 51
90.0
  0
ARC
  5
66D
100
AcDbEntity
  8
0
100
AcDbCircle
 62
7
  6
CONTINUOUS
 10
103.8505050066
 20
91.2870540725
 40
0.2
100
AcDbArc
 50
90.0
 51
179.9999999998
  0
ARC
  5
66E
100
AcDbEntity
  8
0
100
AcDbCircle
 62
7
  6
CONTINUOUS
 10
118.2505050066
 20
90.4870540725
 40
0.2
100
AcDbArc
 50
180.0
 51
270.0
  0
ARC
  5
66F
100
AcDbEntity
  8
0
100
AcDbCircle
 62
7
  6
CONTINUOUS
 10
119.0505050066
 20
90.4870540725
 40
0.2
100
AcDbArc
 50
270.0
 51
359.9999999999
  0
ARC
  5
670
100
AcDbEntity
  8
0
100
AcDbCircle
 62
7
  6
CONTINUOUS
 10
116.6505050066
 20
90.4870540725
 40
0.2
100
AcDbArc
 50
270.0
 51
360.0
  0
ARC
  5
671
100
AcDbEntity
  8
0
100
AcDbCircle
 62
7
  6
CONTINUOUS
 10
127.8505050066
 20
90.4870540725
 40
0.2
100
AcDbArc
 50
180.0000000001
 51
270.0
  0
ARC
  5
672
100
AcDbEntity
  8
0
100
AcDbCircle
 62
7
  6
CONTINUOUS
 10
128.6505050066
 20
90.4870540725
 40
0.2
100
AcDbArc
 50
270.0
 51
359.9999999999
  0
ARC
  5
673
100
AcDbEntity
  8
0
100
AcDbCircle
 62
7
  6
CONTINUOUS
 10
125.4505050066
 20
90.4870540725
 40
0.2
100
AcDbArc
 50
180.0
 51
270.0
  0
ARC
  5
674
100
AcDbEntity
  8
0
100
AcDbCircle
 62
7
  6
CONTINUOUS
 10
126.2505050066
 20
90.4870540725
 40
0.2
100
AcDbArc
 50
270.0
 51
360.0
  0
ARC
  5
675
100
AcDbEntity
  8
0
100
AcDbCircle
 62
7
  6
CONTINUOUS
 10
123.0505050066
 20
90.4870540725
 40
0.2
100
AcDbArc
 50
180.0
 51
270.0
  0
ARC
  5
676
100
AcDbEntity
  8
0
100
AcDbCircle
 62
7
  6
CONTINUOUS
 10
123.8505050066
 20
90.4870540725
 40
0.2
100
AcDbArc
 50
270.0
 51
360.0
  0
ARC
  5
677
100
AcDbEntity
  8
0
100
AcDbCircle
 62
7
  6
CONTINUOUS
 10
120.6505050066
 20
90.4870540725
 40
0.2
100
AcDbArc
 50
180.0
 51
270.0
  0
ARC
  5
678
100
AcDbEntity
  8
0
100
AcDbCircle
 62
7
  6
CONTINUOUS
 10
121.4505050066
 20
90.4870540725
 40
0.2
100
AcDbArc
 50
270.0
 51
360.0
  0
ARC
  5
679
100
AcDbEntity
  8
0
100
AcDbCircle
 62
7
  6
CONTINUOUS
 10
119.0505050066
 20
91.2870540725
 40
0.2
100
AcDbArc
 50
0.0000000001
 51
90.0
  0
ARC
  5
67A
100
AcDbEntity
  8
0
100
AcDbCircle
 62
7
  6
CONTINUOUS
 10
118.2505050066
 20
91.2870540725
 40
0.2
100
AcDbArc
 50
90.0
 51
180.0
  0
ARC
  5
67B
100
AcDbEntity
  8
0
100
AcDbCircle
 62
7
  6
CONTINUOUS
 10
116.6505050066
 20
91.2870540725
 40
0.2
100
AcDbArc
 50
0.0
 51
90.0
  0
ARC
  5
67C
100
AcDbEntity
  8
0
100
AcDbCircle
 62
7
  6
CONTINUOUS
 10
128.6505050066
 20
91.2870540725
 40
0.2
100
AcDbArc
 50
0.0000000001
 51
90.0
  0
ARC
  5
67D
100
AcDbEntity
  8
0
100
AcDbCircle
 62
7
  6
CONTINUOUS
 10
127.8505050066
 20
91.2870540725
 40
0.2
100
AcDbArc
 50
90.0
 51
179.9999999999
  0
ARC
  5
67E
100
AcDbEntity
  8
0
100
AcDbCircle
 62
7
  6
CONTINUOUS
 10
126.2505050066
 20
91.2870540725
 40
0.2
100
AcDbArc
 50
0.0
 51
90.0
  0
ARC
  5
67F
100
AcDbEntity
  8
0
100
AcDbCircle
 62
7
  6
CONTINUOUS
 10
125.4505050066
 20
91.2870540725
 40
0.2
100
AcDbArc
 50
90.0
 51
180.0
  0
ARC
  5
680
100
AcDbEntity
  8
0
100
AcDbCircle
 62
7
  6
CONTINUOUS
 10
123.8505050066
 20
91.2870540725
 40
0.2
100
AcDbArc
 50
0.0
 51
90.0
  0
ARC
  5
681
100
AcDbEntity
  8
0
100
AcDbCircle
 62
7
  6
CONTINUOUS
 10
123.0505050066
 20
91.2870540725
 40
0.2
100
AcDbArc
 50
90.0
 51
180.0
  0
ARC
  5
682
100
AcDbEntity
  8
0
100
AcDbCircle
 62
7
  6
CONTINUOUS
 10
121.4505050066
 20
91.2870540725
 40
0.2
100
AcDbArc
 50
0.0
 51
90.0
  0
ARC
  5
683
100
AcDbEntity
  8
0
100
AcDbCircle
 62
7
  6
CONTINUOUS
 10
120.6505050066
 20
91.2870540725
 40
0.2
100
AcDbArc
 50
90.0
 51
180.0
  0
ARC
  5
684
100
AcDbEntity
  8
0
100
AcDbCircle
 62
7
  6
CONTINUOUS
 10
156.591236785
 20
87.3566550102
 40
1.421442721
100
AcDbArc
 50
286.7457898024
 51
303.7470844354
  0
ARC
  5
685
100
AcDbEntity
  8
0
100
AcDbCircle
 62
7
  6
CONTINUOUS
 10
150.0097500266
 20
87.3565937526
 40
1.4213775809
100
AcDbArc
 50
236.2089534709
 51
253.2262328033
  0
ARC
  5
686
100
AcDbEntity
  8
0
100
AcDbCircle
 62
7
  6
CONTINUOUS
 10
156.6005050066
 20
87.3370540725
 40
1.4
100
AcDbArc
 50
270.0
 51
353.8493601721
  0
ARC
  5
687
100
AcDbEntity
  8
0
100
AcDbCircle
 62
7
  6
CONTINUOUS
 10
150.0005050066
 20
87.3370540725
 40
1.4
100
AcDbArc
 50
186.1506398279
 51
270.0
  0
ARC
  5
688
100
AcDbEntity
  8
0
100
AcDbCircle
 62
7
  6
CONTINUOUS
 10
156.6005050066
 20
88.1770540725
 40
1.4
100
AcDbArc
 50
8.6269265587
 51
52.45332336
  0
ARC
  5
689
100
AcDbEntity
  8
0
100
AcDbCircle
 62
7
  6
CONTINUOUS
 10
150.0005050066
 20
88.1770540725
 40
1.4
100
AcDbArc
 50
127.54667664
 51
171.3730734413
  0
ARC
  5
68A
100
AcDbEntity
  8
0
100
AcDbCircle
 62
7
  6
CONTINUOUS
 10
156.6005050066
 20
88.1770540725
 40
1.4
100
AcDbArc
 50
59.801242977
 51
90.0
  0
ARC
  5
68B
100
AcDbEntity
  8
0
100
AcDbCircle
 62
7
  6
CONTINUOUS
 10
150.0005050066
 20
88.1770540725
 40
1.4
100
AcDbArc
 50
90.0
 51
120.198757023
  0
ARC
  5
68C
100
AcDbEntity
  8
0
100
AcDbCircle
 62
7
  6
CONTINUOUS
 10
150.0005050066
 20
87.3370540725
 40
1.2
100
AcDbArc
 50
180.0
 51
270.0
  0
ARC
  5
68D
100
AcDbEntity
  8
0
100
AcDbCircle
 62
7
  6
CONTINUOUS
 10
156.6005050066
 20
87.3370540725
 40
1.2
100
AcDbArc
 50
270.0
 51
360.0
  0
ARC
  5
68E
100
AcDbEntity
  8
0
100
AcDbCircle
 62
7
  6
CONTINUOUS
 10
156.6005050066
 20
88.1770540725
 40
1.2
100
AcDbArc
 50
0.0
 51
90.0
  0
ARC
  5
68F
100
AcDbEntity
  8
0
100
AcDbCircle
 62
7
  6
CONTINUOUS
 10
150.0005050066
 20
88.1770540725
 40
1.2
100
AcDbArc
 50
90.0
 51
180.0
  0
ARC
  5
690
100
AcDbEntity
  8
0
100
AcDbCircle
 62
7
  6
CONTINUOUS
 10
150.0005050066
 20
87.3370540725
 40
0.9
100
AcDbArc
 50
180.0
 51
270.0
  0
ARC
  5
691
100
AcDbEntity
  8
0
100
AcDbCircle
 62
7
  6
CONTINUOUS
 10
156.6005050066
 20
87.3370540725
 40
0.9
100
AcDbArc
 50
270.0
 51
360.0
  0
ARC
  5
692
100
AcDbEntity
  8
0
100
AcDbCircle
 62
7
  6
CONTINUOUS
 10
150.0005050066
 20
88.1770540725
 40
0.9
100
AcDbArc
 50
90.0
 51
180.0
  0
ARC
  5
693
100
AcDbEntity
  8
0
100
AcDbCircle
 62
7
  6
CONTINUOUS
 10
156.6005050066
 20
88.1770540725
 40
0.9
100
AcDbArc
 50
0.0
 51
90.0
  0
ARC
  5
694
100
AcDbEntity
  8
0
100
AcDbCircle
 62
7
  6
CONTINUOUS
 10
130.2505050066
 20
87.3870540725
 40
0.2
100
AcDbArc
 50
180.0000000001
 51
270.0
  0
ARC
  5
695
100
AcDbEntity
  8
0
100
AcDbCircle
 62
7
  6
CONTINUOUS
 10
131.0505050066
 20
87.3870540725
 40
0.2
100
AcDbArc
 50
270.0
 51
360.0
  0
ARC
  5
696
100
AcDbEntity
  8
0
100
AcDbCircle
 62
7
  6
CONTINUOUS
 10
132.6505050066
 20
87.3870540725
 40
0.2
100
AcDbArc
 50
180.0
 51
270.0
  0
ARC
  5
697
100
AcDbEntity
  8
0
100
AcDbCircle
 62
7
  6
CONTINUOUS
 10
133.4505050066
 20
87.3870540725
 40
0.2
100
AcDbArc
 50
270.0
 51
360.0
  0
ARC
  5
698
100
AcDbEntity
  8
0
100
AcDbCircle
 62
7
  6
CONTINUOUS
 10
135.0505050066
 20
87.3870540725
 40
0.2
100
AcDbArc
 50
179.9999999999
 51
270.0
  0
ARC
  5
699
100
AcDbEntity
  8
0
100
AcDbCircle
 62
7
  6
CONTINUOUS
 10
135.8505050066
 20
87.3870540725
 40
0.2
100
AcDbArc
 50
270.0
 51
360.0
  0
ARC
  5
69A
100
AcDbEntity
  8
0
100
AcDbCircle
 62
7
  6
CONTINUOUS
 10
130.2505050066
 20
88.1870540725
 40
0.2
100
AcDbArc
 50
90.0
 51
179.9999999999
  0
ARC
  5
69B
100
AcDbEntity
  8
0
100
AcDbCircle
 62
7
  6
CONTINUOUS
 10
131.0505050066
 20
88.1870540725
 40
0.2
100
AcDbArc
 50
0.0
 51
90.0
  0
ARC
  5
69C
100
AcDbEntity
  8
0
100
AcDbCircle
 62
7
  6
CONTINUOUS
 10
132.6505050066
 20
88.1870540725
 40
0.2
100
AcDbArc
 50
90.0
 51
180.0
  0
ARC
  5
69D
100
AcDbEntity
  8
0
100
AcDbCircle
 62
7
  6
CONTINUOUS
 10
133.4505050066
 20
88.1870540725
 40
0.2
100
AcDbArc
 50
0.0
 51
90.0
  0
ARC
  5
69E
100
AcDbEntity
  8
0
100
AcDbCircle
 62
7
  6
CONTINUOUS
 10
135.0505050066
 20
88.1870540725
 40
0.2
100
AcDbArc
 50
90.0
 51
180.0000000001
  0
ARC
  5
69F
100
AcDbEntity
  8
0
100
AcDbCircle
 62
7
  6
CONTINUOUS
 10
135.8505050066
 20
88.1870540725
 40
0.2
100
AcDbArc
 50
0.0
 51
90.0
  0
ARC
  5
6A0
100
AcDbEntity
  8
0
100
AcDbCircle
 62
7
  6
CONTINUOUS
 10
135.0505050066
 20
90.4870540725
 40
0.2
100
AcDbArc
 50
179.9999999999
 51
270.0
  0
ARC
  5
6A1
100
AcDbEntity
  8
0
100
AcDbCircle
 62
7
  6
CONTINUOUS
 10
135.8505050066
 20
90.4870540725
 40
0.2
100
AcDbArc
 50
270.0
 51
360.0
  0
ARC
  5
6A2
100
AcDbEntity
  8
0
100
AcDbCircle
 62
7
  6
CONTINUOUS
 10
132.6505050066
 20
90.4870540725
 40
0.2
100
AcDbArc
 50
180.0
 51
270.0
  0
ARC
  5
6A3
100
AcDbEntity
  8
0
100
AcDbCircle
 62
7
  6
CONTINUOUS
 10
133.4505050066
 20
90.4870540725
 40
0.2
100
AcDbArc
 50
270.0
 51
360.0
  0
ARC
  5
6A4
100
AcDbEntity
  8
0
100
AcDbCircle
 62
7
  6
CONTINUOUS
 10
130.2505050066
 20
90.4870540725
 40
0.2
100
AcDbArc
 50
180.0000000001
 51
270.0
  0
ARC
  5
6A5
100
AcDbEntity
  8
0
100
AcDbCircle
 62
7
  6
CONTINUOUS
 10
131.0505050066
 20
90.4870540725
 40
0.2
100
AcDbArc
 50
270.0
 51
360.0
  0
ARC
  5
6A6
100
AcDbEntity
  8
0
100
AcDbCircle
 62
7
  6
CONTINUOUS
 10
135.8505050066
 20
91.2870540725
 40
0.2
100
AcDbArc
 50
0.0
 51
90.0
  0
ARC
  5
6A7
100
AcDbEntity
  8
0
100
AcDbCircle
 62
7
  6
CONTINUOUS
 10
135.0505050066
 20
91.2870540725
 40
0.2
100
AcDbArc
 50
90.0
 51
180.0000000001
  0
ARC
  5
6A8
100
AcDbEntity
  8
0
100
AcDbCircle
 62
7
  6
CONTINUOUS
 10
133.4505050066
 20
91.2870540725
 40
0.2
100
AcDbArc
 50
0.0
 51
90.0
  0
ARC
  5
6A9
100
AcDbEntity
  8
0
100
AcDbCircle
 62
7
  6
CONTINUOUS
 10
132.6505050066
 20
91.2870540725
 40
0.2
100
AcDbArc
 50
90.0
 51
180.0
  0
ARC
  5
6AA
100
AcDbEntity
  8
0
100
AcDbCircle
 62
7
  6
CONTINUOUS
 10
131.0505050066
 20
91.2870540725
 40
0.2
100
AcDbArc
 50
0.0
 51
90.0
  0
ARC
  5
6AB
100
AcDbEntity
  8
0
100
AcDbCircle
 62
7
  6
CONTINUOUS
 10
130.2505050066
 20
91.2870540725
 40
0.2
100
AcDbArc
 50
90.0
 51
179.9999999999
  0
ARC
  5
6AC
100
AcDbEntity
  8
0
100
AcDbCircle
 62
7
  6
CONTINUOUS
 10
59.3380385717
 20
121.6699401122
 40
1.3
100
AcDbArc
 50
21.0375110252
 51
46.2188752345
  0
ARC
  5
6AD
100
AcDbEntity
  8
0
100
AcDbCircle
 62
7
  6
CONTINUOUS
 10
59.3380385717
 20
134.1048344597
 40
1.3
100
AcDbArc
 50
313.7811247647
 51
338.9624889747
  0
ARC
  5
6AE
100
AcDbEntity
  8
0
100
AcDbCircle
 62
7
  6
CONTINUOUS
 10
59.3380385717
 20
121.6699401122
 40
1.2
100
AcDbArc
 50
21.0375110248
 51
46.2188752352
  0
ARC
  5
6AF
100
AcDbEntity
  8
0
100
AcDbCircle
 62
7
  6
CONTINUOUS
 10
59.3380385717
 20
134.1048344597
 40
1.2
100
AcDbArc
 50
313.7811247639
 51
338.9624889745
  0
ARC
  5
6B0
100
AcDbEntity
  8
0
100
AcDbCircle
 62
7
  6
CONTINUOUS
 10
59.3380385717
 20
134.1048344597
 40
1.0
100
AcDbArc
 50
313.7811247643
 51
338.9624889754
  0
ARC
  5
6B1
100
AcDbEntity
  8
0
100
AcDbCircle
 62
7
  6
CONTINUOUS
 10
59.3380385717
 20
121.6699401122
 40
1.0
100
AcDbArc
 50
21.0375110242
 51
46.218875235
  0
ARC
  5
6B2
100
AcDbEntity
  8
0
100
AcDbCircle
 62
7
  6
CONTINUOUS
 10
59.4912041416
 20
134.387387286
 40
0.6
100
AcDbArc
 50
90.0
 51
180.0
  0
ARC
  5
6B3
100
AcDbEntity
  8
0
100
AcDbCircle
 62
7
  6
CONTINUOUS
 10
59.4912041416
 20
121.387387286
 40
0.6
100
AcDbArc
 50
180.0
 51
270.0
  0
ARC
  5
6B4
100
AcDbEntity
  8
0
100
AcDbCircle
 62
7
  6
CONTINUOUS
 10
62.9912041416
 20
121.387387286
 40
0.6
100
AcDbArc
 50
270.0
 51
360.0
  0
ARC
  5
6B5
100
AcDbEntity
  8
0
100
AcDbCircle
 62
7
  6
CONTINUOUS
 10
62.9912041416
 20
134.387387286
 40
0.6
100
AcDbArc
 50
0.0
 51
90.0
  0
ARC
  5
6B6
100
AcDbEntity
  8
0
100
AcDbCircle
 62
7
  6
CONTINUOUS
 10
59.4912041416
 20
132.1740218635
 40
0.5
100
AcDbArc
 50
133.781124767
 51
180.0
  0
ARC
  5
6B7
100
AcDbEntity
  8
0
100
AcDbCircle
 62
7
  6
CONTINUOUS
 10
61.0346036907
 20
134.337387286
 40
0.5
100
AcDbArc
 50
90.0
 51
158.9624889744
  0
ARC
  5
6B8
100
AcDbEntity
  8
0
100
AcDbCircle
 62
7
  6
CONTINUOUS
 10
62.9912041416
 20
134.337387286
 40
0.5
100
AcDbArc
 50
0.0
 51
90.0
  0
ARC
  5
6B9
100
AcDbEntity
  8
0
100
AcDbCircle
 62
7
  6
CONTINUOUS
 10
62.9912041416
 20
121.437387286
 40
0.5
100
AcDbArc
 50
270.0
 51
360.0
  0
ARC
  5
6BA
100
AcDbEntity
  8
0
100
AcDbCircle
 62
7
  6
CONTINUOUS
 10
61.0346036907
 20
121.437387286
 40
0.5
100
AcDbArc
 50
201.0375110262
 51
270.0
  0
ARC
  5
6BB
100
AcDbEntity
  8
0
100
AcDbCircle
 62
7
  6
CONTINUOUS
 10
59.4912041416
 20
123.6007527084
 40
0.5
100
AcDbArc
 50
180.0
 51
226.2188752342
  0
ARC
  5
6BC
100
AcDbEntity
  8
0
100
AcDbCircle
 62
7
  6
CONTINUOUS
 10
59.4912041416
 20
134.337387286
 40
0.5
100
AcDbArc
 50
90.0
 51
180.0
  0
ARC
  5
6BD
100
AcDbEntity
  8
0
100
AcDbCircle
 62
7
  6
CONTINUOUS
 10
59.4912041416
 20
121.437387286
 40
0.5
100
AcDbArc
 50
180.0
 51
270.0
  0
ARC
  5
6BE
100
AcDbEntity
  8
0
100
AcDbCircle
 62
7
  6
CONTINUOUS
 10
59.4912041416
 20
134.337387286
 40
0.3459526816
100
AcDbArc
 50
89.9999999987
 51
180.0000000009
  0
ARC
  5
6BF
100
AcDbEntity
  8
0
100
AcDbCircle
 62
7
  6
CONTINUOUS
 10
59.4912041416
 20
121.437387286
 40
0.3459526816
100
AcDbArc
 50
179.9999999991
 51
270.0000000011
  0
ARC
  5
6C0
100
AcDbEntity
  8
0
100
AcDbCircle
 62
7
  6
CONTINUOUS
 10
59.4912041416
 20
123.6007527084
 40
0.3
100
AcDbArc
 50
180.0
 51
226.2188752334
  0
ARC
  5
6C1
100
AcDbEntity
  8
0
100
AcDbCircle
 62
7
  6
CONTINUOUS
 10
61.0346036907
 20
121.437387286
 40
0.3
100
AcDbArc
 50
201.0375110257
 51
270.0
  0
ARC
  5
6C2
100
AcDbEntity
  8
0
100
AcDbCircle
 62
7
  6
CONTINUOUS
 10
62.9912041416
 20
121.437387286
 40
0.3
100
AcDbArc
 50
270.0
 51
360.0
  0
ARC
  5
6C3
100
AcDbEntity
  8
0
100
AcDbCircle
 62
7
  6
CONTINUOUS
 10
62.9912041416
 20
134.337387286
 40
0.3
100
AcDbArc
 50
0.0
 51
90.0
  0
ARC
  5
6C4
100
AcDbEntity
  8
0
100
AcDbCircle
 62
7
  6
CONTINUOUS
 10
61.0346036907
 20
134.337387286
 40
0.3
100
AcDbArc
 50
90.0
 51
158.9624889764
  0
ARC
  5
6C5
100
AcDbEntity
  8
0
100
AcDbCircle
 62
7
  6
CONTINUOUS
 10
59.4912041416
 20
132.1740218635
 40
0.3
100
AcDbArc
 50
133.781124769
 51
180.0
  0
ARC
  5
6C6
100
AcDbEntity
  8
0
100
AcDbCircle
 62
7
  6
CONTINUOUS
 10
59.4912041416
 20
134.337387286
 40
0.2459526816
100
AcDbArc
 50
89.9999999992
 51
180.0000000015
  0
ARC
  5
6C7
100
AcDbEntity
  8
0
100
AcDbCircle
 62
7
  6
CONTINUOUS
 10
59.4912041416
 20
121.437387286
 40
0.2459526816
100
AcDbArc
 50
179.9999999991
 51
270.0000000014
  0
ARC
  5
6C8
100
AcDbEntity
  8
0
100
AcDbCircle
 62
7
  6
CONTINUOUS
 10
59.4912041416
 20
123.6007527084
 40
0.2
100
AcDbArc
 50
180.0
 51
226.2188752355
  0
ARC
  5
6C9
100
AcDbEntity
  8
0
100
AcDbCircle
 62
7
  6
CONTINUOUS
 10
61.0346036907
 20
121.437387286
 40
0.2
100
AcDbArc
 50
201.0375110242
 51
270.0
  0
ARC
  5
6CA
100
AcDbEntity
  8
0
100
AcDbCircle
 62
7
  6
CONTINUOUS
 10
62.9912041416
 20
121.437387286
 40
0.2
100
AcDbArc
 50
270.0
 51
360.0
  0
ARC
  5
6CB
100
AcDbEntity
  8
0
100
AcDbCircle
 62
7
  6
CONTINUOUS
 10
62.9912041416
 20
134.337387286
 40
0.2
100
AcDbArc
 50
0.0
 51
90.0
  0
ARC
  5
6CC
100
AcDbEntity
  8
0
100
AcDbCircle
 62
7
  6
CONTINUOUS
 10
61.0346036907
 20
134.337387286
 40
0.2
100
AcDbArc
 50
90.0
 51
158.9624889759
  0
ARC
  5
6CD
100
AcDbEntity
  8
0
100
AcDbCircle
 62
7
  6
CONTINUOUS
 10
59.4912041416
 20
132.1740218635
 40
0.2
100
AcDbArc
 50
133.7811247666
 51
180.0
  0
ARC
  5
6CE
100
AcDbEntity
  8
0
100
AcDbCircle
 62
7
  6
CONTINUOUS
 10
99.1005050066
 20
115.387387286
 40
3.5
100
AcDbArc
 50
180.0
 51
270.0000000373
  0
ARC
  5
6CF
100
AcDbEntity
  8
0
100
AcDbCircle
 62
7
  6
CONTINUOUS
 10
99.1005050066
 20
140.387387286
 40
3.5
100
AcDbArc
 50
90.0
 51
180.00000005
  0
ARC
  5
6D0
100
AcDbEntity
  8
0
100
AcDbCircle
 62
7
  6
CONTINUOUS
 10
99.1005050066
 20
115.387387286
 40
2.9
100
AcDbArc
 50
180.0000008012
 51
269.9999994096
  0
ARC
  5
6D1
100
AcDbEntity
  8
0
100
AcDbCircle
 62
7
  6
CONTINUOUS
 10
99.1005050066
 20
140.387387286
 40
2.9
100
AcDbArc
 50
90.0000002353
 51
179.9999989555
  0
ARC
  5
6D2
100
AcDbEntity
  8
0
100
AcDbCircle
 62
7
  6
CONTINUOUS
 10
119.0505050066
 20
168.365623873
 40
0.2
100
AcDbArc
 50
270.0
 51
359.9999999999
  0
ARC
  5
6D3
100
AcDbEntity
  8
0
100
AcDbCircle
 62
7
  6
CONTINUOUS
 10
119.0505050066
 20
169.165623873
 40
0.2
100
AcDbArc
 50
0.0000000001
 51
90.0
  0
ARC
  5
6D4
100
AcDbEntity
  8
0
100
AcDbCircle
 62
7
  6
CONTINUOUS
 10
118.2505050066
 20
169.165623873
 40
0.2
100
AcDbArc
 50
90.0
 51
179.9999999999
  0
ARC
  5
6D5
100
AcDbEntity
  8
0
100
AcDbCircle
 62
7
  6
CONTINUOUS
 10
118.2505050066
 20
168.365623873
 40
0.2
100
AcDbArc
 50
180.0000000001
 51
270.0
  0
ARC
  5
6D6
100
AcDbEntity
  8
0
100
AcDbCircle
 62
7
  6
CONTINUOUS
 10
116.6505050066
 20
168.365623873
 40
0.2
100
AcDbArc
 50
270.0
 51
359.9999999999
  0
ARC
  5
6D7
100
AcDbEntity
  8
0
100
AcDbCircle
 62
7
  6
CONTINUOUS
 10
116.6505050066
 20
169.165623873
 40
0.2
100
AcDbArc
 50
0.0000000001
 51
90.0
  0
ARC
  5
6D8
100
AcDbEntity
  8
0
100
AcDbCircle
 62
7
  6
CONTINUOUS
 10
115.8505050066
 20
169.165623873
 40
0.2
100
AcDbArc
 50
90.0
 51
179.9999999999
  0
ARC
  5
6D9
100
AcDbEntity
  8
0
100
AcDbCircle
 62
7
  6
CONTINUOUS
 10
115.8505050066
 20
168.365623873
 40
0.2
100
AcDbArc
 50
180.0000000001
 51
270.0
  0
ARC
  5
6DA
100
AcDbEntity
  8
0
100
AcDbCircle
 62
7
  6
CONTINUOUS
 10
114.2505050066
 20
168.365623873
 40
0.2
100
AcDbArc
 50
270.0
 51
360.0
  0
ARC
  5
6DB
100
AcDbEntity
  8
0
100
AcDbCircle
 62
7
  6
CONTINUOUS
 10
114.2505050066
 20
169.165623873
 40
0.2
100
AcDbArc
 50
0.0
 51
90.0
  0
ARC
  5
6DC
100
AcDbEntity
  8
0
100
AcDbCircle
 62
7
  6
CONTINUOUS
 10
113.4505050066
 20
169.165623873
 40
0.2
100
AcDbArc
 50
90.0
 51
180.0
  0
ARC
  5
6DD
100
AcDbEntity
  8
0
100
AcDbCircle
 62
7
  6
CONTINUOUS
 10
113.4505050066
 20
168.365623873
 40
0.2
100
AcDbArc
 50
180.0
 51
270.0
  0
ARC
  5
6DE
100
AcDbEntity
  8
0
100
AcDbCircle
 62
7
  6
CONTINUOUS
 10
111.8505050066
 20
168.365623873
 40
0.2
100
AcDbArc
 50
270.0
 51
360.0
  0
ARC
  5
6DF
100
AcDbEntity
  8
0
100
AcDbCircle
 62
7
  6
CONTINUOUS
 10
111.8505050066
 20
169.165623873
 40
0.2
100
AcDbArc
 50
0.0
 51
90.0
  0
ARC
  5
6E0
100
AcDbEntity
  8
0
100
AcDbCircle
 62
7
  6
CONTINUOUS
 10
111.0505050066
 20
169.165623873
 40
0.2
100
AcDbArc
 50
90.0
 51
180.0
  0
ARC
  5
6E1
100
AcDbEntity
  8
0
100
AcDbCircle
 62
7
  6
CONTINUOUS
 10
111.0505050066
 20
168.365623873
 40
0.2
100
AcDbArc
 50
180.0
 51
270.0
  0
ARC
  5
6E2
100
AcDbEntity
  8
0
100
AcDbCircle
 62
7
  6
CONTINUOUS
 10
109.4505050066
 20
168.365623873
 40
0.2
100
AcDbArc
 50
270.0
 51
360.0
  0
ARC
  5
6E3
100
AcDbEntity
  8
0
100
AcDbCircle
 62
7
  6
CONTINUOUS
 10
109.4505050066
 20
169.165623873
 40
0.2
100
AcDbArc
 50
0.0
 51
90.0
  0
ARC
  5
6E4
100
AcDbEntity
  8
0
100
AcDbCircle
 62
7
  6
CONTINUOUS
 10
108.6505050066
 20
169.165623873
 40
0.2
100
AcDbArc
 50
90.0
 51
180.0
  0
ARC
  5
6E5
100
AcDbEntity
  8
0
100
AcDbCircle
 62
7
  6
CONTINUOUS
 10
108.6505050066
 20
168.365623873
 40
0.2
100
AcDbArc
 50
180.0
 51
270.0
  0
ARC
  5
6E6
100
AcDbEntity
  8
0
100
AcDbCircle
 62
7
  6
CONTINUOUS
 10
107.0505050066
 20
168.365623873
 40
0.2
100
AcDbArc
 50
270.0
 51
359.9999999999
  0
ARC
  5
6E7
100
AcDbEntity
  8
0
100
AcDbCircle
 62
7
  6
CONTINUOUS
 10
107.0505050066
 20
169.165623873
 40
0.2
100
AcDbArc
 50
0.0000000001
 51
90.0
  0
ARC
  5
6E8
100
AcDbEntity
  8
0
100
AcDbCircle
 62
7
  6
CONTINUOUS
 10
106.2505050066
 20
169.165623873
 40
0.2
100
AcDbArc
 50
90.0
 51
179.9999999999
  0
ARC
  5
6E9
100
AcDbEntity
  8
0
100
AcDbCircle
 62
7
  6
CONTINUOUS
 10
106.2505050066
 20
168.365623873
 40
0.2
100
AcDbArc
 50
180.0000000001
 51
270.0
  0
ARC
  5
6EA
100
AcDbEntity
  8
0
100
AcDbCircle
 62
7
  6
CONTINUOUS
 10
104.6505050066
 20
168.365623873
 40
0.2
100
AcDbArc
 50
270.0
 51
359.9999999999
  0
ARC
  5
6EB
100
AcDbEntity
  8
0
100
AcDbCircle
 62
7
  6
CONTINUOUS
 10
104.6505050066
 20
169.165623873
 40
0.2
100
AcDbArc
 50
0.0000000001
 51
90.0
  0
ARC
  5
6EC
100
AcDbEntity
  8
0
100
AcDbCircle
 62
7
  6
CONTINUOUS
 10
103.8505050066
 20
169.165623873
 40
0.2
100
AcDbArc
 50
90.0
 51
179.9999999999
  0
ARC
  5
6ED
100
AcDbEntity
  8
0
100
AcDbCircle
 62
7
  6
CONTINUOUS
 10
103.8505050066
 20
168.365623873
 40
0.2
100
AcDbArc
 50
180.0000000001
 51
270.0
  0
ARC
  5
6EE
100
AcDbEntity
  8
0
100
AcDbCircle
 62
7
  6
CONTINUOUS
 10
106.2505050066
 20
172.265623873
 40
0.2
100
AcDbArc
 50
90.0
 51
179.9999999999
  0
ARC
  5
6EF
100
AcDbEntity
  8
0
100
AcDbCircle
 62
7
  6
CONTINUOUS
 10
107.0505050066
 20
172.265623873
 40
0.2
100
AcDbArc
 50
0.0000000001
 51
90.0
  0
ARC
  5
6F0
100
AcDbEntity
  8
0
100
AcDbCircle
 62
7
  6
CONTINUOUS
 10
107.0505050066
 20
171.465623873
 40
0.2
100
AcDbArc
 50
270.0
 51
359.9999999999
  0
ARC
  5
6F1
100
AcDbEntity
  8
0
100
AcDbCircle
 62
7
  6
CONTINUOUS
 10
106.2505050066
 20
171.465623873
 40
0.2
100
AcDbArc
 50
180.0000000001
 51
270.0
  0
ARC
  5
6F2
100
AcDbEntity
  8
0
100
AcDbCircle
 62
7
  6
CONTINUOUS
 10
108.6505050066
 20
172.265623873
 40
0.2
100
AcDbArc
 50
90.0
 51
180.0
  0
ARC
  5
6F3
100
AcDbEntity
  8
0
100
AcDbCircle
 62
7
  6
CONTINUOUS
 10
109.4505050066
 20
172.265623873
 40
0.2
100
AcDbArc
 50
0.0
 51
90.0
  0
ARC
  5
6F4
100
AcDbEntity
  8
0
100
AcDbCircle
 62
7
  6
CONTINUOUS
 10
109.4505050066
 20
171.465623873
 40
0.2
100
AcDbArc
 50
270.0
 51
360.0
  0
ARC
  5
6F5
100
AcDbEntity
  8
0
100
AcDbCircle
 62
7
  6
CONTINUOUS
 10
108.6505050066
 20
171.465623873
 40
0.2
100
AcDbArc
 50
180.0
 51
270.0
  0
ARC
  5
6F6
100
AcDbEntity
  8
0
100
AcDbCircle
 62
7
  6
CONTINUOUS
 10
111.0505050066
 20
172.265623873
 40
0.2
100
AcDbArc
 50
90.0
 51
180.0
  0
ARC
  5
6F7
100
AcDbEntity
  8
0
100
AcDbCircle
 62
7
  6
CONTINUOUS
 10
111.8505050066
 20
172.265623873
 40
0.2
100
AcDbArc
 50
0.0
 51
90.0
  0
ARC
  5
6F8
100
AcDbEntity
  8
0
100
AcDbCircle
 62
7
  6
CONTINUOUS
 10
111.8505050066
 20
171.465623873
 40
0.2
100
AcDbArc
 50
270.0
 51
360.0
  0
ARC
  5
6F9
100
AcDbEntity
  8
0
100
AcDbCircle
 62
7
  6
CONTINUOUS
 10
111.0505050066
 20
171.465623873
 40
0.2
100
AcDbArc
 50
180.0
 51
270.0
  0
ARC
  5
6FA
100
AcDbEntity
  8
0
100
AcDbCircle
 62
7
  6
CONTINUOUS
 10
113.4505050066
 20
172.265623873
 40
0.2
100
AcDbArc
 50
90.0
 51
180.0
  0
ARC
  5
6FB
100
AcDbEntity
  8
0
100
AcDbCircle
 62
7
  6
CONTINUOUS
 10
114.2505050066
 20
172.265623873
 40
0.2
100
AcDbArc
 50
0.0
 51
90.0
  0
ARC
  5
6FC
100
AcDbEntity
  8
0
100
AcDbCircle
 62
7
  6
CONTINUOUS
 10
114.2505050066
 20
171.465623873
 40
0.2
100
AcDbArc
 50
270.0
 51
360.0
  0
ARC
  5
6FD
100
AcDbEntity
  8
0
100
AcDbCircle
 62
7
  6
CONTINUOUS
 10
113.4505050066
 20
171.465623873
 40
0.2
100
AcDbArc
 50
180.0
 51
270.0
  0
ARC
  5
6FE
100
AcDbEntity
  8
0
100
AcDbCircle
 62
7
  6
CONTINUOUS
 10
115.8505050066
 20
172.265623873
 40
0.2
100
AcDbArc
 50
90.0
 51
179.9999999999
  0
ARC
  5
6FF
100
AcDbEntity
  8
0
100
AcDbCircle
 62
7
  6
CONTINUOUS
 10
116.6505050066
 20
172.265623873
 40
0.2
100
AcDbArc
 50
0.0000000001
 51
90.0
  0
ARC
  5
700
100
AcDbEntity
  8
0
100
AcDbCircle
 62
7
  6
CONTINUOUS
 10
116.6505050066
 20
171.465623873
 40
0.2
100
AcDbArc
 50
270.0
 51
359.9999999999
  0
ARC
  5
701
100
AcDbEntity
  8
0
100
AcDbCircle
 62
7
  6
CONTINUOUS
 10
115.8505050066
 20
171.465623873
 40
0.2
100
AcDbArc
 50
180.0000000001
 51
270.0
  0
ARC
  5
702
100
AcDbEntity
  8
0
100
AcDbCircle
 62
7
  6
CONTINUOUS
 10
118.2505050066
 20
172.265623873
 40
0.2
100
AcDbArc
 50
90.0
 51
179.9999999999
  0
ARC
  5
703
100
AcDbEntity
  8
0
100
AcDbCircle
 62
7
  6
CONTINUOUS
 10
119.0505050066
 20
172.265623873
 40
0.2
100
AcDbArc
 50
0.0000000001
 51
90.0
  0
ARC
  5
704
100
AcDbEntity
  8
0
100
AcDbCircle
 62
7
  6
CONTINUOUS
 10
119.0505050066
 20
171.465623873
 40
0.2
100
AcDbArc
 50
270.0
 51
359.9999999999
  0
ARC
  5
705
100
AcDbEntity
  8
0
100
AcDbCircle
 62
7
  6
CONTINUOUS
 10
118.2505050066
 20
171.465623873
 40
0.2
100
AcDbArc
 50
180.0000000001
 51
270.0
  0
ARC
  5
706
100
AcDbEntity
  8
0
100
AcDbCircle
 62
7
  6
CONTINUOUS
 10
103.8505050066
 20
172.265623873
 40
0.2
100
AcDbArc
 50
90.0
 51
179.9999999999
  0
ARC
  5
707
100
AcDbEntity
  8
0
100
AcDbCircle
 62
7
  6
CONTINUOUS
 10
104.6505050066
 20
172.265623873
 40
0.2
100
AcDbArc
 50
0.0000000001
 51
90.0
  0
ARC
  5
708
100
AcDbEntity
  8
0
100
AcDbCircle
 62
7
  6
CONTINUOUS
 10
104.6505050066
 20
171.465623873
 40
0.2
100
AcDbArc
 50
270.0
 51
359.9999999999
  0
ARC
  5
709
100
AcDbEntity
  8
0
100
AcDbCircle
 62
7
  6
CONTINUOUS
 10
103.8505050066
 20
171.465623873
 40
0.2
100
AcDbArc
 50
180.0000000001
 51
270.0
  0
ARC
  5
70A
100
AcDbEntity
  8
0
100
AcDbCircle
 62
7
  6
CONTINUOUS
 10
133.4505050066
 20
168.365623873
 40
0.2
100
AcDbArc
 50
270.0
 51
360.0
  0
ARC
  5
70B
100
AcDbEntity
  8
0
100
AcDbCircle
 62
7
  6
CONTINUOUS
 10
133.4505050066
 20
169.165623873
 40
0.2
100
AcDbArc
 50
0.0
 51
90.0
  0
ARC
  5
70C
100
AcDbEntity
  8
0
100
AcDbCircle
 62
7
  6
CONTINUOUS
 10
132.6505050066
 20
169.165623873
 40
0.2
100
AcDbArc
 50
90.0
 51
180.0
  0
ARC
  5
70D
100
AcDbEntity
  8
0
100
AcDbCircle
 62
7
  6
CONTINUOUS
 10
132.6505050066
 20
168.365623873
 40
0.2
100
AcDbArc
 50
180.0
 51
270.0
  0
ARC
  5
70E
100
AcDbEntity
  8
0
100
AcDbCircle
 62
7
  6
CONTINUOUS
 10
131.0505050066
 20
168.365623873
 40
0.2
100
AcDbArc
 50
270.0
 51
360.0
  0
ARC
  5
70F
100
AcDbEntity
  8
0
100
AcDbCircle
 62
7
  6
CONTINUOUS
 10
131.0505050066
 20
169.165623873
 40
0.2
100
AcDbArc
 50
0.0
 51
90.0
  0
ARC
  5
710
100
AcDbEntity
  8
0
100
AcDbCircle
 62
7
  6
CONTINUOUS
 10
130.2505050066
 20
169.165623873
 40
0.2
100
AcDbArc
 50
90.0
 51
179.9999999999
  0
ARC
  5
711
100
AcDbEntity
  8
0
100
AcDbCircle
 62
7
  6
CONTINUOUS
 10
130.2505050066
 20
168.365623873
 40
0.2
100
AcDbArc
 50
180.0000000001
 51
270.0
  0
ARC
  5
712
100
AcDbEntity
  8
0
100
AcDbCircle
 62
7
  6
CONTINUOUS
 10
128.6505050066
 20
168.365623873
 40
0.2
100
AcDbArc
 50
270.0
 51
359.9999999999
  0
ARC
  5
713
100
AcDbEntity
  8
0
100
AcDbCircle
 62
7
  6
CONTINUOUS
 10
128.6505050066
 20
169.165623873
 40
0.2
100
AcDbArc
 50
0.0000000001
 51
90.0
  0
ARC
  5
714
100
AcDbEntity
  8
0
100
AcDbCircle
 62
7
  6
CONTINUOUS
 10
127.8505050066
 20
169.165623873
 40
0.2
100
AcDbArc
 50
90.0
 51
179.9999999999
  0
ARC
  5
715
100
AcDbEntity
  8
0
100
AcDbCircle
 62
7
  6
CONTINUOUS
 10
127.8505050066
 20
168.365623873
 40
0.2
100
AcDbArc
 50
180.0000000001
 51
270.0
  0
ARC
  5
716
100
AcDbEntity
  8
0
100
AcDbCircle
 62
7
  6
CONTINUOUS
 10
126.2505050066
 20
168.365623873
 40
0.2
100
AcDbArc
 50
270.0
 51
360.0
  0
ARC
  5
717
100
AcDbEntity
  8
0
100
AcDbCircle
 62
7
  6
CONTINUOUS
 10
126.2505050066
 20
169.165623873
 40
0.2
100
AcDbArc
 50
0.0
 51
90.0
  0
ARC
  5
718
100
AcDbEntity
  8
0
100
AcDbCircle
 62
7
  6
CONTINUOUS
 10
125.4505050066
 20
169.165623873
 40
0.2
100
AcDbArc
 50
90.0
 51
180.0
  0
ARC
  5
719
100
AcDbEntity
  8
0
100
AcDbCircle
 62
7
  6
CONTINUOUS
 10
125.4505050066
 20
168.365623873
 40
0.2
100
AcDbArc
 50
180.0
 51
270.0
  0
ARC
  5
71A
100
AcDbEntity
  8
0
100
AcDbCircle
 62
7
  6
CONTINUOUS
 10
123.8505050066
 20
168.365623873
 40
0.2
100
AcDbArc
 50
270.0
 51
360.0
  0
ARC
  5
71B
100
AcDbEntity
  8
0
100
AcDbCircle
 62
7
  6
CONTINUOUS
 10
123.8505050066
 20
169.165623873
 40
0.2
100
AcDbArc
 50
0.0
 51
90.0
  0
ARC
  5
71C
100
AcDbEntity
  8
0
100
AcDbCircle
 62
7
  6
CONTINUOUS
 10
123.0505050066
 20
169.165623873
 40
0.2
100
AcDbArc
 50
90.0
 51
180.0
  0
ARC
  5
71D
100
AcDbEntity
  8
0
100
AcDbCircle
 62
7
  6
CONTINUOUS
 10
123.0505050066
 20
168.365623873
 40
0.2
100
AcDbArc
 50
180.0
 51
270.0
  0
ARC
  5
71E
100
AcDbEntity
  8
0
100
AcDbCircle
 62
7
  6
CONTINUOUS
 10
121.4505050066
 20
168.365623873
 40
0.2
100
AcDbArc
 50
270.0
 51
360.0
  0
ARC
  5
71F
100
AcDbEntity
  8
0
100
AcDbCircle
 62
7
  6
CONTINUOUS
 10
121.4505050066
 20
169.165623873
 40
0.2
100
AcDbArc
 50
0.0
 51
90.0
  0
ARC
  5
720
100
AcDbEntity
  8
0
100
AcDbCircle
 62
7
  6
CONTINUOUS
 10
120.6505050066
 20
169.165623873
 40
0.2
100
AcDbArc
 50
90.0
 51
180.0
  0
ARC
  5
721
100
AcDbEntity
  8
0
100
AcDbCircle
 62
7
  6
CONTINUOUS
 10
120.6505050066
 20
168.365623873
 40
0.2
100
AcDbArc
 50
180.0
 51
270.0
  0
ARC
  5
722
100
AcDbEntity
  8
0
100
AcDbCircle
 62
7
  6
CONTINUOUS
 10
135.8505050066
 20
168.365623873
 40
0.2
100
AcDbArc
 50
270.0
 51
360.0
  0
ARC
  5
723
100
AcDbEntity
  8
0
100
AcDbCircle
 62
7
  6
CONTINUOUS
 10
135.8505050066
 20
169.165623873
 40
0.2
100
AcDbArc
 50
0.0
 51
90.0
  0
ARC
  5
724
100
AcDbEntity
  8
0
100
AcDbCircle
 62
7
  6
CONTINUOUS
 10
135.0505050066
 20
169.165623873
 40
0.2
100
AcDbArc
 50
90.0
 51
180.0000000001
  0
ARC
  5
725
100
AcDbEntity
  8
0
100
AcDbCircle
 62
7
  6
CONTINUOUS
 10
135.0505050066
 20
168.365623873
 40
0.2
100
AcDbArc
 50
179.9999999999
 51
270.0
  0
ARC
  5
726
100
AcDbEntity
  8
0
100
AcDbCircle
 62
7
  6
CONTINUOUS
 10
120.6505050066
 20
172.265623873
 40
0.2
100
AcDbArc
 50
90.0
 51
180.0
  0
ARC
  5
727
100
AcDbEntity
  8
0
100
AcDbCircle
 62
7
  6
CONTINUOUS
 10
121.4505050066
 20
172.265623873
 40
0.2
100
AcDbArc
 50
0.0
 51
90.0
  0
ARC
  5
728
100
AcDbEntity
  8
0
100
AcDbCircle
 62
7
  6
CONTINUOUS
 10
121.4505050066
 20
171.465623873
 40
0.2
100
AcDbArc
 50
270.0
 51
360.0
  0
ARC
  5
729
100
AcDbEntity
  8
0
100
AcDbCircle
 62
7
  6
CONTINUOUS
 10
120.6505050066
 20
171.465623873
 40
0.2
100
AcDbArc
 50
180.0
 51
270.0
  0
ARC
  5
72A
100
AcDbEntity
  8
0
100
AcDbCircle
 62
7
  6
CONTINUOUS
 10
123.0505050066
 20
172.265623873
 40
0.2
100
AcDbArc
 50
90.0
 51
180.0
  0
ARC
  5
72B
100
AcDbEntity
  8
0
100
AcDbCircle
 62
7
  6
CONTINUOUS
 10
123.8505050066
 20
172.265623873
 40
0.2
100
AcDbArc
 50
0.0
 51
90.0
  0
ARC
  5
72C
100
AcDbEntity
  8
0
100
AcDbCircle
 62
7
  6
CONTINUOUS
 10
123.8505050066
 20
171.465623873
 40
0.2
100
AcDbArc
 50
270.0
 51
360.0
  0
ARC
  5
72D
100
AcDbEntity
  8
0
100
AcDbCircle
 62
7
  6
CONTINUOUS
 10
123.0505050066
 20
171.465623873
 40
0.2
100
AcDbArc
 50
180.0
 51
270.0
  0
ARC
  5
72E
100
AcDbEntity
  8
0
100
AcDbCircle
 62
7
  6
CONTINUOUS
 10
125.4505050066
 20
172.265623873
 40
0.2
100
AcDbArc
 50
90.0
 51
180.0
  0
ARC
  5
72F
100
AcDbEntity
  8
0
100
AcDbCircle
 62
7
  6
CONTINUOUS
 10
126.2505050066
 20
172.265623873
 40
0.2
100
AcDbArc
 50
0.0
 51
90.0
  0
ARC
  5
730
100
AcDbEntity
  8
0
100
AcDbCircle
 62
7
  6
CONTINUOUS
 10
126.2505050066
 20
171.465623873
 40
0.2
100
AcDbArc
 50
270.0
 51
360.0
  0
ARC
  5
731
100
AcDbEntity
  8
0
100
AcDbCircle
 62
7
  6
CONTINUOUS
 10
125.4505050066
 20
171.465623873
 40
0.2
100
AcDbArc
 50
180.0
 51
270.0
  0
ARC
  5
732
100
AcDbEntity
  8
0
100
AcDbCircle
 62
7
  6
CONTINUOUS
 10
127.8505050066
 20
172.265623873
 40
0.2
100
AcDbArc
 50
90.0
 51
179.9999999999
  0
ARC
  5
733
100
AcDbEntity
  8
0
100
AcDbCircle
 62
7
  6
CONTINUOUS
 10
128.6505050066
 20
172.265623873
 40
0.2
100
AcDbArc
 50
0.0000000001
 51
90.0
  0
ARC
  5
734
100
AcDbEntity
  8
0
100
AcDbCircle
 62
7
  6
CONTINUOUS
 10
128.6505050066
 20
171.465623873
 40
0.2
100
AcDbArc
 50
270.0
 51
359.9999999999
  0
ARC
  5
735
100
AcDbEntity
  8
0
100
AcDbCircle
 62
7
  6
CONTINUOUS
 10
127.8505050066
 20
171.465623873
 40
0.2
100
AcDbArc
 50
180.0000000001
 51
270.0
  0
ARC
  5
736
100
AcDbEntity
  8
0
100
AcDbCircle
 62
7
  6
CONTINUOUS
 10
130.2505050066
 20
172.265623873
 40
0.2
100
AcDbArc
 50
90.0
 51
179.9999999999
  0
ARC
  5
737
100
AcDbEntity
  8
0
100
AcDbCircle
 62
7
  6
CONTINUOUS
 10
131.0505050066
 20
172.265623873
 40
0.2
100
AcDbArc
 50
0.0
 51
90.0
  0
ARC
  5
738
100
AcDbEntity
  8
0
100
AcDbCircle
 62
7
  6
CONTINUOUS
 10
131.0505050066
 20
171.465623873
 40
0.2
100
AcDbArc
 50
270.0
 51
360.0
  0
ARC
  5
739
100
AcDbEntity
  8
0
100
AcDbCircle
 62
7
  6
CONTINUOUS
 10
130.2505050066
 20
171.465623873
 40
0.2
100
AcDbArc
 50
180.0000000001
 51
270.0
  0
ARC
  5
73A
100
AcDbEntity
  8
0
100
AcDbCircle
 62
7
  6
CONTINUOUS
 10
132.6505050066
 20
172.265623873
 40
0.2
100
AcDbArc
 50
90.0
 51
180.0
  0
ARC
  5
73B
100
AcDbEntity
  8
0
100
AcDbCircle
 62
7
  6
CONTINUOUS
 10
133.4505050066
 20
172.265623873
 40
0.2
100
AcDbArc
 50
0.0
 51
90.0
  0
ARC
  5
73C
100
AcDbEntity
  8
0
100
AcDbCircle
 62
7
  6
CONTINUOUS
 10
133.4505050066
 20
171.465623873
 40
0.2
100
AcDbArc
 50
270.0
 51
360.0
  0
ARC
  5
73D
100
AcDbEntity
  8
0
100
AcDbCircle
 62
7
  6
CONTINUOUS
 10
132.6505050066
 20
171.465623873
 40
0.2
100
AcDbArc
 50
180.0
 51
270.0
  0
ARC
  5
73E
100
AcDbEntity
  8
0
100
AcDbCircle
 62
7
  6
CONTINUOUS
 10
135.0505050066
 20
172.265623873
 40
0.2
100
AcDbArc
 50
90.0
 51
180.0000000001
  0
ARC
  5
73F
100
AcDbEntity
  8
0
100
AcDbCircle
 62
7
  6
CONTINUOUS
 10
135.8505050066
 20
172.265623873
 40
0.2
100
AcDbArc
 50
0.0
 51
90.0
  0
ARC
  5
740
100
AcDbEntity
  8
0
100
AcDbCircle
 62
7
  6
CONTINUOUS
 10
135.8505050066
 20
171.465623873
 40
0.2
100
AcDbArc
 50
270.0
 51
360.0
  0
ARC
  5
741
100
AcDbEntity
  8
0
100
AcDbCircle
 62
7
  6
CONTINUOUS
 10
135.0505050066
 20
171.465623873
 40
0.2
100
AcDbArc
 50
179.9999999999
 51
270.0
  0
ARC
  5
742
100
AcDbEntity
  8
0
100
AcDbCircle
 62
7
  6
CONTINUOUS
 10
412.9429061151
 20
88.6863682109
 40
254.9559263417
100
AcDbArc
 50
180.2028048466
 51
180.337619358
  0
ARC
  5
743
100
AcDbEntity
  8
0
100
AcDbCircle
 62
7
  6
CONTINUOUS
 10
179.7005050066
 20
64.1680671648
 40
3.5
100
AcDbArc
 50
0.0
 51
90.0
  0
ARC
  5
744
100
AcDbEntity
  8
0
100
AcDbCircle
 62
7
  6
CONTINUOUS
 10
179.7005050066
 20
39.1680671648
 40
3.5
100
AcDbArc
 50
269.9999999501
 51
360.0
  0
ARC
  5
745
100
AcDbEntity
  8
0
100
AcDbCircle
 62
7
  6
CONTINUOUS
 10
179.7005050066
 20
39.1680671648
 40
2.9
100
AcDbArc
 50
270.0000007486
 51
359.9999989377
  0
ARC
  5
746
100
AcDbEntity
  8
0
100
AcDbCircle
 62
7
  6
CONTINUOUS
 10
179.7005050066
 20
64.1680671648
 40
2.9
100
AcDbArc
 50
0.000000749
 51
89.9999989421
  0
ARC
  5
747
100
AcDbEntity
  8
0
100
AcDbCircle
 62
7
  6
CONTINUOUS
 10
179.7005050066
 20
39.1680671648
 40
2.4
100
AcDbArc
 50
270.0
 51
359.2036659556
  0
ARC
  5
748
100
AcDbEntity
  8
0
100
AcDbCircle
 62
7
  6
CONTINUOUS
 10
179.7005050066
 20
64.1680671648
 40
2.4
100
AcDbArc
 50
0.7963340443
 51
89.9999989421
  0
ARC
  5
749
100
AcDbEntity
  8
0
100
AcDbCircle
 62
7
  6
CONTINUOUS
 10
166.6183076674
 20
114.2331102487
 40
0.2
100
AcDbArc
 50
314.9303468084
 51
134.1122077674
  0
ARC
  5
74A
100
AcDbEntity
  8
0
100
AcDbCircle
 62
7
  6
CONTINUOUS
 10
167.8183076674
 20
114.2331102487
 40
0.2
100
AcDbArc
 50
46.2093152976
 51
225.0696531931
  0
ARC
  5
74B
100
AcDbEntity
  8
0
100
AcDbCircle
 62
7
  6
CONTINUOUS
 10
166.6183076674
 20
115.4331102487
 40
0.2
100
AcDbArc
 50
225.887792234
 51
45.0696531927
  0
ARC
  5
74C
100
AcDbEntity
  8
0
100
AcDbCircle
 62
7
  6
CONTINUOUS
 10
167.8183076674
 20
115.4331102487
 40
0.2
100
AcDbArc
 50
134.9303468095
 51
315.7484858389
  0
ARC
  5
74D
100
AcDbEntity
  8
0
100
AcDbCircle
 62
7
  6
CONTINUOUS
 10
169.2327831663
 20
116.8441652294
 40
0.2
100
AcDbArc
 50
314.3518376059
 51
135.5088560096
  0
ARC
  5
74E
100
AcDbEntity
  8
0
100
AcDbCircle
 62
7
  6
CONTINUOUS
 10
171.8472586653
 20
114.2331102487
 40
0.2
100
AcDbArc
 50
314.930346806
 51
135.7484858583
  0
ARC
  5
74F
100
AcDbEntity
  8
0
100
AcDbCircle
 62
7
  6
CONTINUOUS
 10
171.8472586653
 20
115.4331102487
 40
0.2
100
AcDbArc
 50
224.2515141554
 51
45.0696531927
  0
ARC
  5
750
100
AcDbEntity
  8
0
100
AcDbCircle
 62
7
  6
CONTINUOUS
 10
170.4327831663
 20
116.8441652294
 40
0.2
100
AcDbArc
 50
45.6481623981
 51
224.4911439837
  0
ARC
  5
751
100
AcDbEntity
  8
0
100
AcDbCircle
 62
7
  6
CONTINUOUS
 10
171.8472586653
 20
119.4552202101
 40
0.2
100
AcDbArc
 50
314.9303468109
 51
135.7484858504
  0
ARC
  5
752
100
AcDbEntity
  8
0
100
AcDbCircle
 62
7
  6
CONTINUOUS
 10
170.4327831663
 20
118.0441652294
 40
0.2
100
AcDbArc
 50
135.5088560162
 51
314.3518376036
  0
ARC
  5
753
100
AcDbEntity
  8
0
100
AcDbCircle
 62
7
  6
CONTINUOUS
 10
169.2327831663
 20
118.0441652294
 40
0.2
100
AcDbArc
 50
224.4911439781
 51
45.6481624103
  0
ARC
  5
754
100
AcDbEntity
  8
0
100
AcDbCircle
 62
7
  6
CONTINUOUS
 10
167.8183076674
 20
119.4552202101
 40
0.2
100
AcDbArc
 50
44.2515141225
 51
225.0696531919
  0
ARC
  5
755
100
AcDbEntity
  8
0
100
AcDbCircle
 62
7
  6
CONTINUOUS
 10
166.6183076674
 20
119.4552202101
 40
0.2
100
AcDbArc
 50
314.9303468109
 51
133.8102528406
  0
ARC
  5
756
100
AcDbEntity
  8
0
100
AcDbCircle
 62
7
  6
CONTINUOUS
 10
165.2038321685
 20
118.0441652294
 40
0.2
100
AcDbArc
 50
135.5088560195
 51
314.3518376036
  0
ARC
  5
757
100
AcDbEntity
  8
0
100
AcDbCircle
 62
7
  6
CONTINUOUS
 10
171.8472586653
 20
120.6552202101
 40
0.2
100
AcDbArc
 50
224.251514147
 51
45.0696531918
  0
ARC
  5
758
100
AcDbEntity
  8
0
100
AcDbCircle
 62
7
  6
CONTINUOUS
 10
167.8183076674
 20
120.6552202101
 40
0.2
100
AcDbArc
 50
134.9303468079
 51
315.7484858566
  0
ARC
  5
759
100
AcDbEntity
  8
0
100
AcDbCircle
 62
7
  6
CONTINUOUS
 10
166.6183076674
 20
120.6552202101
 40
0.2
100
AcDbArc
 50
224.2515141151
 51
45.069653179
  0
ARC
  5
75A
100
AcDbEntity
  8
0
100
AcDbCircle
 62
7
  6
CONTINUOUS
 10
170.4327831663
 20
122.0662751908
 40
0.2
100
AcDbArc
 50
44.4911439753
 51
224.4911439843
  0
ARC
  5
75B
100
AcDbEntity
  8
0
100
AcDbCircle
 62
7
  6
CONTINUOUS
 10
169.2327831663
 20
122.0662751908
 40
0.2
100
AcDbArc
 50
314.3518376033
 51
135.5088560224
  0
ARC
  5
75C
100
AcDbEntity
  8
0
100
AcDbCircle
 62
7
  6
CONTINUOUS
 10
165.2038321685
 20
122.0662751908
 40
0.2
100
AcDbArc
 50
44.4911439721
 51
224.4911439831
  0
ARC
  5
75D
100
AcDbEntity
  8
0
100
AcDbCircle
 62
7
  6
CONTINUOUS
 10
166.6183076674
 20
124.6773301715
 40
0.2
100
AcDbArc
 50
314.9303468076
 51
135.7484858531
  0
ARC
  5
75E
100
AcDbEntity
  8
0
100
AcDbCircle
 62
7
  6
CONTINUOUS
 10
165.2038321685
 20
123.2662751908
 40
0.2
100
AcDbArc
 50
134.3518376174
 51
314.3518376094
  0
ARC
  5
75F
100
AcDbEntity
  8
0
100
AcDbCircle
 62
7
  6
CONTINUOUS
 10
167.8183076674
 20
124.6773301715
 40
0.2
100
AcDbArc
 50
44.2515142555
 51
225.0696531918
  0
ARC
  5
760
100
AcDbEntity
  8
0
100
AcDbCircle
 62
7
  6
CONTINUOUS
 10
169.2327831663
 20
123.2662751908
 40
0.2
100
AcDbArc
 50
225.6481623908
 51
44.491143933
  0
ARC
  5
761
100
AcDbEntity
  8
0
100
AcDbCircle
 62
7
  6
CONTINUOUS
 10
170.4327831663
 20
123.2662751908
 40
0.2
100
AcDbArc
 50
135.5088560431
 51
315.5088560668
  0
ARC
  5
762
100
AcDbEntity
  8
0
100
AcDbCircle
 62
7
  6
CONTINUOUS
 10
171.8472586653
 20
124.6773301715
 40
0.2
100
AcDbArc
 50
314.9303467882
 51
135.7484857901
  0
ARC
  5
763
100
AcDbEntity
  8
0
100
AcDbCircle
 62
7
  6
CONTINUOUS
 10
166.6183076674
 20
125.8773301715
 40
0.2
100
AcDbArc
 50
224.251514033
 51
45.0696531846
  0
ARC
  5
764
100
AcDbEntity
  8
0
100
AcDbCircle
 62
7
  6
CONTINUOUS
 10
165.2038321685
 20
127.2883851522
 40
0.2
100
AcDbArc
 50
44.4911439786
 51
225.6481624646
  0
ARC
  5
765
100
AcDbEntity
  8
0
100
AcDbCircle
 62
7
  6
CONTINUOUS
 10
167.8183076674
 20
125.8773301715
 40
0.2
100
AcDbArc
 50
134.9303468076
 51
314.1122077621
  0
ARC
  5
766
100
AcDbEntity
  8
0
100
AcDbCircle
 62
7
  6
CONTINUOUS
 10
169.2327831663
 20
127.2883851522
 40
0.2
100
AcDbArc
 50
315.5088560282
 51
134.3518376096
  0
ARC
  5
767
100
AcDbEntity
  8
0
100
AcDbCircle
 62
7
  6
CONTINUOUS
 10
171.8472586653
 20
125.8773301715
 40
0.2
100
AcDbArc
 50
224.2515141088
 51
45.0696531917
  0
ARC
  5
768
100
AcDbEntity
  8
0
100
AcDbCircle
 62
7
  6
CONTINUOUS
 10
170.4327831663
 20
127.2883851522
 40
0.2
100
AcDbArc
 50
45.6481623885
 51
224.4911439861
  0
ARC
  5
769
100
AcDbEntity
  8
0
100
AcDbCircle
 62
7
  6
CONTINUOUS
 10
170.4327831663
 20
133.7104951136
 40
0.2
100
AcDbArc
 50
135.5088559743
 51
315.508855941
  0
ARC
  5
76A
100
AcDbEntity
  8
0
100
AcDbCircle
 62
7
  6
CONTINUOUS
 10
169.2327831663
 20
133.7104951136
 40
0.2
100
AcDbArc
 50
224.4911439117
 51
45.2624954234
  0
ARC
  5
76B
100
AcDbEntity
  8
0
100
AcDbCircle
 62
7
  6
CONTINUOUS
 10
165.2038321685
 20
133.7104951136
 40
0.2
100
AcDbArc
 50
135.5088560083
 51
315.5088559685
  0
ARC
  5
76C
100
AcDbEntity
  8
0
100
AcDbCircle
 62
7
  6
CONTINUOUS
 10
165.2038321685
 20
132.5104951136
 40
0.2
100
AcDbArc
 50
45.648162379
 51
225.6481624029
  0
ARC
  5
76D
100
AcDbEntity
  8
0
100
AcDbCircle
 62
7
  6
CONTINUOUS
 10
166.6183076674
 20
131.0994401329
 40
0.2
100
AcDbArc
 50
224.25151412
 51
44.8104735054
  0
ARC
  5
76E
100
AcDbEntity
  8
0
100
AcDbCircle
 62
7
  6
CONTINUOUS
 10
167.8183076674
 20
131.0994401329
 40
0.2
100
AcDbArc
 50
134.9303467988
 51
315.4677393887
  0
ARC
  5
76F
100
AcDbEntity
  8
0
100
AcDbCircle
 62
7
  6
CONTINUOUS
 10
169.2327831663
 20
132.5104951136
 40
0.2
100
AcDbArc
 50
315.5088559988
 51
134.3518376154
  0
ARC
  5
770
100
AcDbEntity
  8
0
100
AcDbCircle
 62
7
  6
CONTINUOUS
 10
170.4327831663
 20
132.5104951136
 40
0.2
100
AcDbArc
 50
44.4911439268
 51
224.4911439913
  0
ARC
  5
771
100
AcDbEntity
  8
0
100
AcDbCircle
 62
7
  6
CONTINUOUS
 10
171.8472586653
 20
131.0994401329
 40
0.2
100
AcDbArc
 50
224.2515141014
 51
44.8104735052
  0
ARC
  5
772
100
AcDbEntity
  8
0
100
AcDbCircle
 62
7
  6
CONTINUOUS
 10
166.6183076674
 20
129.8994401329
 40
0.2
100
AcDbArc
 50
314.930346808
 51
135.4677393861
  0
ARC
  5
773
100
AcDbEntity
  8
0
100
AcDbCircle
 62
7
  6
CONTINUOUS
 10
165.2038321685
 20
128.4883851522
 40
0.2
100
AcDbArc
 50
134.3518376468
 51
315.1231890327
  0
ARC
  5
774
100
AcDbEntity
  8
0
100
AcDbCircle
 62
7
  6
CONTINUOUS
 10
167.8183076674
 20
129.8994401329
 40
0.2
100
AcDbArc
 50
45.8877922664
 51
225.0696532582
  0
ARC
  5
775
100
AcDbEntity
  8
0
100
AcDbCircle
 62
7
  6
CONTINUOUS
 10
169.2327831663
 20
128.4883851522
 40
0.2
100
AcDbArc
 50
225.6481623932
 51
44.4911439827
  0
ARC
  5
776
100
AcDbEntity
  8
0
100
AcDbCircle
 62
7
  6
CONTINUOUS
 10
171.8472586653
 20
129.8994401329
 40
0.2
100
AcDbArc
 50
314.9303467309
 51
135.4677393847
  0
ARC
  5
777
100
AcDbEntity
  8
0
100
AcDbCircle
 62
7
  6
CONTINUOUS
 10
170.4327831663
 20
128.4883851522
 40
0.2
100
AcDbArc
 50
135.5088559527
 51
314.3518376154
  0
ARC
  5
778
100
AcDbEntity
  8
0
100
AcDbCircle
 62
7
  6
CONTINUOUS
 10
166.6183076674
 20
141.5436600557
 40
0.2
100
AcDbArc
 50
225.887792223
 51
45.0696531922
  0
ARC
  5
779
100
AcDbEntity
  8
0
100
AcDbCircle
 62
7
  6
CONTINUOUS
 10
167.8183076674
 20
141.5436600557
 40
0.2
100
AcDbArc
 50
134.9303468274
 51
313.8102528525
  0
ARC
  5
77A
100
AcDbEntity
  8
0
100
AcDbCircle
 62
7
  6
CONTINUOUS
 10
166.6183076674
 20
140.3436600557
 40
0.2
100
AcDbArc
 50
314.9303468346
 51
134.1122077672
  0
ARC
  5
77B
100
AcDbEntity
  8
0
100
AcDbCircle
 62
7
  6
CONTINUOUS
 10
167.8183076674
 20
140.3436600557
 40
0.2
100
AcDbArc
 50
44.2515142063
 51
224.8104735028
  0
ARC
  5
77C
100
AcDbEntity
  8
0
100
AcDbCircle
 62
7
  6
CONTINUOUS
 10
169.2327831663
 20
138.932605075
 40
0.2
100
AcDbArc
 50
224.4911440349
 51
45.262495421
  0
ARC
  5
77D
100
AcDbEntity
  8
0
100
AcDbCircle
 62
7
  6
CONTINUOUS
 10
171.8472586653
 20
141.5436600557
 40
0.2
100
AcDbArc
 50
224.2515141109
 51
44.8104735028
  0
ARC
  5
77E
100
AcDbEntity
  8
0
100
AcDbCircle
 62
7
  6
CONTINUOUS
 10
170.4327831663
 20
138.932605075
 40
0.2
100
AcDbArc
 50
135.5088560031
 51
314.3518376154
  0
ARC
  5
77F
100
AcDbEntity
  8
0
100
AcDbCircle
 62
7
  6
CONTINUOUS
 10
171.8472586653
 20
140.3436600557
 40
0.2
100
AcDbArc
 50
314.9303468024
 51
135.4677393847
  0
ARC
  5
780
100
AcDbEntity
  8
0
100
AcDbCircle
 62
7
  6
CONTINUOUS
 10
171.8472586653
 20
136.3215500943
 40
0.2
100
AcDbArc
 50
224.2515141287
 51
44.8104735054
  0
ARC
  5
781
100
AcDbEntity
  8
0
100
AcDbCircle
 62
7
  6
CONTINUOUS
 10
170.4327831663
 20
137.732605075
 40
0.2
100
AcDbArc
 50
45.648162379
 51
224.491143988
  0
ARC
  5
782
100
AcDbEntity
  8
0
100
AcDbCircle
 62
7
  6
CONTINUOUS
 10
169.2327831663
 20
137.732605075
 40
0.2
100
AcDbArc
 50
314.3518376135
 51
135.1231890339
  0
ARC
  5
783
100
AcDbEntity
  8
0
100
AcDbCircle
 62
7
  6
CONTINUOUS
 10
167.8183076674
 20
136.3215500943
 40
0.2
100
AcDbArc
 50
134.9303468131
 51
315.4677393879
  0
ARC
  5
784
100
AcDbEntity
  8
0
100
AcDbCircle
 62
7
  6
CONTINUOUS
 10
165.2038321685
 20
137.732605075
 40
0.2
100
AcDbArc
 50
45.6481623911
 51
224.4911439827
  0
ARC
  5
785
100
AcDbEntity
  8
0
100
AcDbCircle
 62
7
  6
CONTINUOUS
 10
166.6183076674
 20
136.3215500943
 40
0.2
100
AcDbArc
 50
226.2094261863
 51
45.0696531923
  0
ARC
  5
786
100
AcDbEntity
  8
0
100
AcDbCircle
 62
7
  6
CONTINUOUS
 10
171.8472586653
 20
135.1215500943
 40
0.2
100
AcDbArc
 50
314.930346869
 51
135.4677393853
  0
ARC
  5
787
100
AcDbEntity
  8
0
100
AcDbCircle
 62
7
  6
CONTINUOUS
 10
167.8183076674
 20
135.1215500943
 40
0.2
100
AcDbArc
 50
44.2515140447
 51
224.810473505
  0
ARC
  5
788
100
AcDbEntity
  8
0
100
AcDbCircle
 62
7
  6
CONTINUOUS
 10
166.6183076674
 20
135.1215500943
 40
0.2
100
AcDbArc
 50
314.9303468526
 51
135.4677393883
  0
ARC
  5
789
100
AcDbEntity
  8
0
100
AcDbCircle
 62
7
  6
CONTINUOUS
 10
173.0472586653
 20
114.2331102487
 40
0.2
100
AcDbArc
 50
44.2515141731
 51
225.0696532454
  0
ARC
  5
78A
100
AcDbEntity
  8
0
100
AcDbCircle
 62
7
  6
CONTINUOUS
 10
173.0472586653
 20
115.4331102487
 40
0.2
100
AcDbArc
 50
134.9303467886
 51
313.8102528402
  0
ARC
  5
78B
100
AcDbEntity
  8
0
100
AcDbCircle
 62
7
  6
CONTINUOUS
 10
174.4617341642
 20
116.8441652294
 40
0.2
100
AcDbArc
 50
315.5088559797
 51
134.3518375911
  0
ARC
  5
78C
100
AcDbEntity
  8
0
100
AcDbCircle
 62
7
  6
CONTINUOUS
 10
175.6617341642
 20
116.8441652294
 40
0.2
100
AcDbArc
 50
44.4911440042
 51
225.6481623914
  0
ARC
  5
78D
100
AcDbEntity
  8
0
100
AcDbCircle
 62
7
  6
CONTINUOUS
 10
175.6617341642
 20
118.0441652294
 40
0.2
100
AcDbArc
 50
134.3518375538
 51
315.5088560109
  0
ARC
  5
78E
100
AcDbEntity
  8
0
100
AcDbCircle
 62
7
  6
CONTINUOUS
 10
174.4617341642
 20
118.0441652294
 40
0.2
100
AcDbArc
 50
225.6481624176
 51
44.4911439936
  0
ARC
  5
78F
100
AcDbEntity
  8
0
100
AcDbCircle
 62
7
  6
CONTINUOUS
 10
173.0472586653
 20
119.4552202101
 40
0.2
100
AcDbArc
 50
46.2093152999
 51
225.0696531914
  0
ARC
  5
790
100
AcDbEntity
  8
0
100
AcDbCircle
 62
7
  6
CONTINUOUS
 10
173.0472586653
 20
120.6552202101
 40
0.2
100
AcDbArc
 50
134.930346776
 51
326.6465621269
  0
ARC
  5
791
100
AcDbEntity
  8
0
100
AcDbCircle
 62
7
  6
CONTINUOUS
 10
175.6617341642
 20
122.0662751908
 40
0.2
100
AcDbArc
 50
44.4911440096
 51
225.648162352
  0
ARC
  5
792
100
AcDbEntity
  8
0
100
AcDbCircle
 62
7
  6
CONTINUOUS
 10
174.4617341642
 20
122.0662751908
 40
0.2
100
AcDbArc
 50
315.5088559946
 51
135.5088560227
  0
ARC
  5
793
100
AcDbEntity
  8
0
100
AcDbCircle
 62
7
  6
CONTINUOUS
 10
173.0472586653
 20
124.6773301715
 40
0.2
100
AcDbArc
 50
44.2515141078
 51
225.0696532001
  0
ARC
  5
794
100
AcDbEntity
  8
0
100
AcDbCircle
 62
7
  6
CONTINUOUS
 10
174.4617341642
 20
123.2662751908
 40
0.2
100
AcDbArc
 50
225.6481624069
 51
44.4911440101
  0
ARC
  5
795
100
AcDbEntity
  8
0
100
AcDbCircle
 62
7
  6
CONTINUOUS
 10
175.6617341642
 20
123.2662751908
 40
0.2
100
AcDbArc
 50
135.5088560786
 51
315.5088560832
  0
ARC
  5
796
100
AcDbEntity
  8
0
100
AcDbCircle
 62
7
  6
CONTINUOUS
 10
173.0472586653
 20
125.8773301715
 40
0.2
100
AcDbArc
 50
134.9303467496
 51
315.7484857489
  0
ARC
  5
797
100
AcDbEntity
  8
0
100
AcDbCircle
 62
7
  6
CONTINUOUS
 10
174.4617341642
 20
127.2883851522
 40
0.2
100
AcDbArc
 50
314.3518376492
 51
135.5088560765
  0
ARC
  5
798
100
AcDbEntity
  8
0
100
AcDbCircle
 62
7
  6
CONTINUOUS
 10
175.6617341642
 20
127.2883851522
 40
0.2
100
AcDbArc
 50
44.4911439427
 51
225.6481623227
  0
ARC
  5
799
100
AcDbEntity
  8
0
100
AcDbCircle
 62
7
  6
CONTINUOUS
 10
179.7005050066
 20
115.387387286
 40
3.5
100
AcDbArc
 50
270.0
 51
360.0
  0
ARC
  5
79A
100
AcDbEntity
  8
0
100
AcDbCircle
 62
7
  6
CONTINUOUS
 10
179.7005050066
 20
115.387387286
 40
2.9
100
AcDbArc
 50
270.0000002393
 51
359.9999989556
  0
ARC
  5
79B
100
AcDbEntity
  8
0
100
AcDbCircle
 62
7
  6
CONTINUOUS
 10
178.6005050066
 20
115.3883851522
 40
2.4
100
AcDbArc
 50
283.767366739
 51
294.4051620077
  0
ARC
  5
79C
100
AcDbEntity
  8
0
100
AcDbCircle
 62
7
  6
CONTINUOUS
 10
177.0762096632
 20
115.4331102487
 40
0.2
100
AcDbArc
 50
224.2515140881
 51
45.0696531476
  0
ARC
  5
79D
100
AcDbEntity
  8
0
100
AcDbCircle
 62
7
  6
CONTINUOUS
 10
177.0762096632
 20
114.2331102487
 40
0.2
100
AcDbArc
 50
314.9303468192
 51
133.8102528533
  0
ARC
  5
79E
100
AcDbEntity
  8
0
100
AcDbCircle
 62
7
  6
CONTINUOUS
 10
178.2762096632
 20
114.2331102487
 40
0.2
100
AcDbArc
 50
46.2093152752
 51
225.0696531845
  0
ARC
  5
79F
100
AcDbEntity
  8
0
100
AcDbCircle
 62
7
  6
CONTINUOUS
 10
178.2762096632
 20
115.4331102487
 40
0.2
100
AcDbArc
 50
134.9303468321
 51
315.7484856989
  0
ARC
  5
7A0
100
AcDbEntity
  8
0
100
AcDbCircle
 62
7
  6
CONTINUOUS
 10
179.6906851621
 20
116.8441652294
 40
0.2
100
AcDbArc
 50
314.3518376573
 51
135.5088559221
  0
ARC
  5
7A1
100
AcDbEntity
  8
0
100
AcDbCircle
 62
7
  6
CONTINUOUS
 10
180.8906851621
 20
116.8441652294
 40
0.2
100
AcDbArc
 50
44.4911440621
 51
225.6481625189
  0
ARC
  5
7A2
100
AcDbEntity
  8
0
100
AcDbCircle
 62
7
  6
CONTINUOUS
 10
180.8906851621
 20
118.0441652294
 40
0.2
100
AcDbArc
 50
135.5088560834
 51
314.3518376606
  0
ARC
  5
7A3
100
AcDbEntity
  8
0
100
AcDbCircle
 62
7
  6
CONTINUOUS
 10
179.6906851621
 20
118.0441652294
 40
0.2
100
AcDbArc
 50
224.491144127
 51
45.6481624758
  0
ARC
  5
7A4
100
AcDbEntity
  8
0
100
AcDbCircle
 62
7
  6
CONTINUOUS
 10
178.2762096632
 20
119.4552202101
 40
0.2
100
AcDbArc
 50
44.2515141085
 51
225.0696531303
  0
ARC
  5
7A5
100
AcDbEntity
  8
0
100
AcDbCircle
 62
7
  6
CONTINUOUS
 10
177.0762096632
 20
119.4552202101
 40
0.2
100
AcDbArc
 50
314.9303468455
 51
135.7484859966
  0
ARC
  5
7A6
100
AcDbEntity
  8
0
100
AcDbCircle
 62
7
  6
CONTINUOUS
 10
178.2762096632
 20
120.6552202101
 40
0.2
100
AcDbArc
 50
134.9303468059
 51
315.7484856814
  0
ARC
  5
7A7
100
AcDbEntity
  8
0
100
AcDbCircle
 62
7
  6
CONTINUOUS
 10
177.0762096632
 20
120.6552202101
 40
0.2
100
AcDbArc
 50
224.2515141202
 51
45.0696531387
  0
ARC
  5
7A8
100
AcDbEntity
  8
0
100
AcDbCircle
 62
7
  6
CONTINUOUS
 10
180.8906851621
 20
122.0662751908
 40
0.2
100
AcDbArc
 50
44.4911440692
 51
224.4911439352
  0
ARC
  5
7A9
100
AcDbEntity
  8
0
100
AcDbCircle
 62
7
  6
CONTINUOUS
 10
179.6906851621
 20
122.0662751908
 40
0.2
100
AcDbArc
 50
314.351837682
 51
135.5088559722
  0
ARC
  5
7AA
100
AcDbEntity
  8
0
100
AcDbCircle
 62
7
  6
CONTINUOUS
 10
177.0762096632
 20
124.6773301715
 40
0.2
100
AcDbArc
 50
314.9303468093
 51
135.7484857672
  0
ARC
  5
7AB
100
AcDbEntity
  8
0
100
AcDbCircle
 62
7
  6
CONTINUOUS
 10
179.6906851621
 20
123.2662751908
 40
0.2
100
AcDbArc
 50
224.4911440494
 51
44.4911440202
  0
ARC
  5
7AC
100
AcDbEntity
  8
0
100
AcDbCircle
 62
7
  6
CONTINUOUS
 10
178.2762096632
 20
124.6773301715
 40
0.2
100
AcDbArc
 50
44.2515140859
 51
225.0696531721
  0
ARC
  5
7AD
100
AcDbEntity
  8
0
100
AcDbCircle
 62
7
  6
CONTINUOUS
 10
180.8906851621
 20
123.2662751908
 40
0.2
100
AcDbArc
 50
134.3518375309
 51
315.5088559541
  0
ARC
  5
7AE
100
AcDbEntity
  8
0
100
AcDbCircle
 62
7
  6
CONTINUOUS
 10
177.0762096632
 20
125.8773301715
 40
0.2
100
AcDbArc
 50
224.2515141342
 51
45.0696531722
  0
ARC
  5
7AF
100
AcDbEntity
  8
0
100
AcDbCircle
 62
7
  6
CONTINUOUS
 10
178.2762096632
 20
125.8773301715
 40
0.2
100
AcDbArc
 50
134.9303468372
 51
315.7484857536
  0
ARC
  5
7B0
100
AcDbEntity
  8
0
100
AcDbCircle
 62
7
  6
CONTINUOUS
 10
179.6906851621
 20
127.2883851522
 40
0.2
100
AcDbArc
 50
314.3518376417
 51
135.5088559356
  0
ARC
  5
7B1
100
AcDbEntity
  8
0
100
AcDbCircle
 62
7
  6
CONTINUOUS
 10
180.8906851621
 20
127.2883851522
 40
0.2
100
AcDbArc
 50
45.6481623253
 51
224.4911439
  0
ARC
  5
7B2
100
AcDbEntity
  8
0
100
AcDbCircle
 62
7
  6
CONTINUOUS
 10
175.6617341642
 20
133.7104951136
 40
0.2
100
AcDbArc
 50
134.3518376872
 51
315.1231890335
  0
ARC
  5
7B3
100
AcDbEntity
  8
0
100
AcDbCircle
 62
7
  6
CONTINUOUS
 10
174.4617341642
 20
133.7104951136
 40
0.2
100
AcDbArc
 50
224.4911439895
 51
44.4911439585
  0
ARC
  5
7B4
100
AcDbEntity
  8
0
100
AcDbCircle
 62
7
  6
CONTINUOUS
 10
173.0472586653
 20
131.0994401329
 40
0.2
100
AcDbArc
 50
134.9303468218
 51
315.4677393835
  0
ARC
  5
7B5
100
AcDbEntity
  8
0
100
AcDbCircle
 62
7
  6
CONTINUOUS
 10
174.4617341642
 20
132.5104951136
 40
0.2
100
AcDbArc
 50
315.5088560185
 51
134.3518375774
  0
ARC
  5
7B6
100
AcDbEntity
  8
0
100
AcDbCircle
 62
7
  6
CONTINUOUS
 10
175.6617341642
 20
132.5104951136
 40
0.2
100
AcDbArc
 50
44.4911439296
 51
224.4911439452
  0
ARC
  5
7B7
100
AcDbEntity
  8
0
100
AcDbCircle
 62
7
  6
CONTINUOUS
 10
173.0472586653
 20
129.8994401329
 40
0.2
100
AcDbArc
 50
44.2515142743
 51
224.8104735119
  0
ARC
  5
7B8
100
AcDbEntity
  8
0
100
AcDbCircle
 62
7
  6
CONTINUOUS
 10
174.4617341642
 20
128.4883851522
 40
0.2
100
AcDbArc
 50
224.4911439672
 51
45.2624954236
  0
ARC
  5
7B9
100
AcDbEntity
  8
0
100
AcDbCircle
 62
7
  6
CONTINUOUS
 10
175.6617341642
 20
128.4883851522
 40
0.2
100
AcDbArc
 50
134.3518376021
 51
315.1231890335
  0
ARC
  5
7BA
100
AcDbEntity
  8
0
100
AcDbCircle
 62
7
  6
CONTINUOUS
 10
175.6617341642
 20
137.732605075
 40
0.2
100
AcDbArc
 50
44.4911439297
 51
225.2624954216
  0
ARC
  5
7BB
100
AcDbEntity
  8
0
100
AcDbCircle
 62
7
  6
CONTINUOUS
 10
174.4617341642
 20
137.732605075
 40
0.2
100
AcDbArc
 50
315.5088559979
 51
134.3518375774
  0
ARC
  5
7BC
100
AcDbEntity
  8
0
100
AcDbCircle
 62
7
  6
CONTINUOUS
 10
173.0472586653
 20
136.3215500943
 40
0.2
100
AcDbArc
 50
134.9303468218
 51
313.8102528366
  0
ARC
  5
7BD
100
AcDbEntity
  8
0
100
AcDbCircle
 62
7
  6
CONTINUOUS
 10
173.0472586653
 20
135.1215500943
 40
0.2
100
AcDbArc
 50
33.3534378712
 51
225.0607818451
  0
ARC
  5
7BE
100
AcDbEntity
  8
0
100
AcDbCircle
 62
7
  6
CONTINUOUS
 10
173.0472586653
 20
141.5436600557
 40
0.2
100
AcDbArc
 50
134.930346777
 51
315.4677393875
  0
ARC
  5
7BF
100
AcDbEntity
  8
0
100
AcDbCircle
 62
7
  6
CONTINUOUS
 10
173.0472586653
 20
140.3436600557
 40
0.2
100
AcDbArc
 50
46.1897505856
 51
225.0696531875
  0
ARC
  5
7C0
100
AcDbEntity
  8
0
100
AcDbCircle
 62
7
  6
CONTINUOUS
 10
174.4617341642
 20
138.932605075
 40
0.2
100
AcDbArc
 50
225.6481624161
 51
44.4911439584
  0
ARC
  5
7C1
100
AcDbEntity
  8
0
100
AcDbCircle
 62
7
  6
CONTINUOUS
 10
175.6617341642
 20
138.932605075
 40
0.2
100
AcDbArc
 50
134.3518376906
 51
315.1231890355
  0
ARC
  5
7C2
100
AcDbEntity
  8
0
100
AcDbCircle
 62
7
  6
CONTINUOUS
 10
180.8906851621
 20
133.7104951136
 40
0.2
100
AcDbArc
 50
135.5088560474
 51
315.5088559541
  0
ARC
  5
7C3
100
AcDbEntity
  8
0
100
AcDbCircle
 62
7
  6
CONTINUOUS
 10
179.6906851621
 20
133.7104951136
 40
0.2
100
AcDbArc
 50
224.4911440307
 51
45.2624954277
  0
ARC
  5
7C4
100
AcDbEntity
  8
0
100
AcDbCircle
 62
7
  6
CONTINUOUS
 10
177.0762096632
 20
131.0994401329
 40
0.2
100
AcDbArc
 50
224.251514154
 51
44.810473502
  0
ARC
  5
7C5
100
AcDbEntity
  8
0
100
AcDbCircle
 62
7
  6
CONTINUOUS
 10
179.6906851621
 20
132.5104951136
 40
0.2
100
AcDbArc
 50
315.5088560074
 51
135.5088559322
  0
ARC
  5
7C6
100
AcDbEntity
  8
0
100
AcDbCircle
 62
7
  6
CONTINUOUS
 10
178.2762096632
 20
131.0994401329
 40
0.2
100
AcDbArc
 50
134.9303468398
 51
315.4677393875
  0
ARC
  5
7C7
100
AcDbEntity
  8
0
100
AcDbCircle
 62
7
  6
CONTINUOUS
 10
180.8906851621
 20
132.5104951136
 40
0.2
100
AcDbArc
 50
44.4911440636
 51
225.2624954945
  0
ARC
  5
7C8
100
AcDbEntity
  8
0
100
AcDbCircle
 62
7
  6
CONTINUOUS
 10
177.0762096632
 20
129.8994401329
 40
0.2
100
AcDbArc
 50
314.9303468077
 51
135.4677393875
  0
ARC
  5
7C9
100
AcDbEntity
  8
0
100
AcDbCircle
 62
7
  6
CONTINUOUS
 10
178.2762096632
 20
129.8994401329
 40
0.2
100
AcDbArc
 50
44.25151427
 51
224.8104735101
  0
ARC
  5
7CA
100
AcDbEntity
  8
0
100
AcDbCircle
 62
7
  6
CONTINUOUS
 10
179.6906851621
 20
128.4883851522
 40
0.2
100
AcDbArc
 50
224.4911441208
 51
45.2624954277
  0
ARC
  5
7CB
100
AcDbEntity
  8
0
100
AcDbCircle
 62
7
  6
CONTINUOUS
 10
180.8906851621
 20
128.4883851522
 40
0.2
100
AcDbArc
 50
135.5088560453
 51
314.3518376827
  0
ARC
  5
7CC
100
AcDbEntity
  8
0
100
AcDbCircle
 62
7
  6
CONTINUOUS
 10
179.7005050066
 20
140.387387286
 40
3.5
100
AcDbArc
 50
0.0
 51
90.00000005
  0
ARC
  5
7CD
100
AcDbEntity
  8
0
100
AcDbCircle
 62
7
  6
CONTINUOUS
 10
179.7005050066
 20
140.387387286
 40
2.9
100
AcDbArc
 50
0.000000802
 51
89.9999994164
  0
ARC
  5
7CE
100
AcDbEntity
  8
0
100
AcDbCircle
 62
7
  6
CONTINUOUS
 10
178.6005050066
 20
140.3883851522
 40
2.4
100
AcDbArc
 50
65.5948379922
 51
76.2326332609
  0
ARC
  5
7CF
100
AcDbEntity
  8
0
100
AcDbCircle
 62
7
  6
CONTINUOUS
 10
180.8906851621
 20
137.732605075
 40
0.2
100
AcDbArc
 50
45.648162322
 51
224.4911438941
  0
ARC
  5
7D0
100
AcDbEntity
  8
0
100
AcDbCircle
 62
7
  6
CONTINUOUS
 10
179.6906851621
 20
137.732605075
 40
0.2
100
AcDbArc
 50
314.3518375996
 51
135.1231890295
  0
ARC
  5
7D1
100
AcDbEntity
  8
0
100
AcDbCircle
 62
7
  6
CONTINUOUS
 10
178.2762096632
 20
136.3215500943
 40
0.2
100
AcDbArc
 50
134.9303468077
 51
315.4677393875
  0
ARC
  5
7D2
100
AcDbEntity
  8
0
100
AcDbCircle
 62
7
  6
CONTINUOUS
 10
177.0762096632
 20
136.3215500943
 40
0.2
100
AcDbArc
 50
224.2515141906
 51
44.810473502
  0
ARC
  5
7D3
100
AcDbEntity
  8
0
100
AcDbCircle
 62
7
  6
CONTINUOUS
 10
178.2762096632
 20
135.1215500943
 40
0.2
100
AcDbArc
 50
44.2515141226
 51
224.810473502
  0
ARC
  5
7D4
100
AcDbEntity
  8
0
100
AcDbCircle
 62
7
  6
CONTINUOUS
 10
177.0762096632
 20
135.1215500943
 40
0.2
100
AcDbArc
 50
314.9303468756
 51
135.4677393875
  0
ARC
  5
7D5
100
AcDbEntity
  8
0
100
AcDbCircle
 62
7
  6
CONTINUOUS
 10
177.0762096632
 20
140.3436600557
 40
0.2
100
AcDbArc
 50
314.9303467782
 51
135.4677393875
  0
ARC
  5
7D6
100
AcDbEntity
  8
0
100
AcDbCircle
 62
7
  6
CONTINUOUS
 10
177.0762096632
 20
141.5436600557
 40
0.2
100
AcDbArc
 50
226.1897505719
 51
45.0696531721
  0
ARC
  5
7D7
100
AcDbEntity
  8
0
100
AcDbCircle
 62
7
  6
CONTINUOUS
 10
178.2762096632
 20
141.5436600557
 40
0.2
100
AcDbArc
 50
134.9303468711
 51
313.8102529187
  0
ARC
  5
7D8
100
AcDbEntity
  8
0
100
AcDbCircle
 62
7
  6
CONTINUOUS
 10
178.2762096632
 20
140.3436600557
 40
0.2
100
AcDbArc
 50
44.2515143296
 51
224.810473502
  0
ARC
  5
7D9
100
AcDbEntity
  8
0
100
AcDbCircle
 62
7
  6
CONTINUOUS
 10
179.6906851621
 20
138.932605075
 40
0.2
100
AcDbArc
 50
224.4911440354
 51
45.2624954216
  0
ARC
  5
7DA
100
AcDbEntity
  8
0
100
AcDbCircle
 62
7
  6
CONTINUOUS
 10
180.8906851621
 20
138.932605075
 40
0.2
100
AcDbArc
 50
134.3518374187
 51
315.1231889626
  0
SPLINE
  5
7DB
100
AcDbEntity
  8
0
100
AcDbSpline
 62
7
  6
CONTINUOUS
 70
0
 71
3
 72
11
 73
7
 74
0
 42
0.0000001
 43
0.0000001
 44
0.0000000001
 40
0.0
 40
0.0
 40
0.0
 40
0.0
 40
0.2499992222
 40
0.4999989082
 40
0.7499991806
 40
1.0
 40
1.0
 40
1.0
 40
1.0
 10
148.7043186933
 20
86.808016713
 30
0.0
 10
148.6920785484
 20
86.8380290654
 30
0.0
 10
148.6697134091
 20
86.8989412464
 30
0.0
 10
148.6426814214
 20
86.9924256608
 30
0.0
 10
148.622252667
 20
87.087571231
 30
0.0
 10
148.6130801787
 20
87.1518057816
 30
0.0
 10
148.6096048217
 20
87.1840315129
 30
0.0
  0
SPLINE
  5
7DC
100
AcDbEntity
  8
0
100
AcDbSpline
 62
7
  6
CONTINUOUS
 70
0
 71
3
 72
11
 73
7
 74
0
 42
0.0000001
 43
0.0000001
 44
0.0000000001
 40
0.0
 40
0.0
 40
0.0
 40
0.0
 40
0.250000919
 40
0.5000012423
 40
0.7500008871
 40
1.0
 40
1.0
 40
1.0
 40
1.0
 10
157.9914059817
 20
87.1840314104
 30
0.0
 10
157.9878076078
 20
87.1506572526
 30
0.0
 10
157.9782244567
 20
87.0841410804
 30
0.0
 10
157.9566993366
 20
86.9856790374
 30
0.0
 10
157.9280970616
 20
86.8890348795
 30
0.0
 10
157.9043784747
 20
86.8261541417
 30
0.0
 10
157.8913893827
 20
86.7952017604
 30
0.0
  0
ENDSEC
  0
SECTION
  2
OBJECTS
  0
DICTIONARY
  5
7DD
100
AcDbDictionary
  3
ACAD_GROUP
350
7DE
  3
ACAD_MLINESTYLE
350
7DF
  0
DICTIONARY
  5
7DE
102
{ACAD_REACTORS
330
7DD
102
}
100
AcDbDictionary
  0
DICTIONARY
  5
7DF
102
{ACAD_REACTORS
330
7DD
102
}
100
AcDbDictionary
  3
STANDARD
350
7E0
  0
MLINESTYLE
  5
7E0
102
{ACAD_REACTORS
330
7DF
102
}
100
AcDbMlineStyle
  2
STANDARD
 70
0
  3

 62
256
 51
90.0
 52
90.0
 71
2
 49
0.5
 62
256
  6
BYLAYER
 49
-0.5
 62
256
  6
BYLAYER
  0
ENDSEC
  0
EOF
